Mixkatalog
 Einloggen
Login
Passwort

Deep Dance 026 Hits: 1  

Deep Dance 026


Kurzbeschreibung:
Deep präsentiert Deep Dance Volume 26. Gemixt von DJ Deep.
 
Crew/DJ: Deep Reihe: Deep Dance Serie
Stil: Dance Erscheinungsjahr: 1994
CDs: 1 Spielzeit: 73:46
Trackliste:
Cue-Informationen:

FILE "filename.mp3" MP3 
  TRACK 01 AUDIO
    INDEX 01 00:00:00
  TRACK 02 AUDIO
    INDEX 01 30:32:43
  TRACK 03 AUDIO
    INDEX 01 51:58:26
Wertung: (3)  
Hinzugefügt: 24 December 2009
RSS Feed
RSS Feed
Sprache
Deutsch Englisch Französisch
Mixsuche
Suchbegriff
Genauer Wortlaut
Alle Worte (UND)
Ein Wort (ODER)
Statistik
29581 Mixe eingetragen
28170 Tracklisten
Newsletter
E-Mail
Anmelden
Abmelden
SPONSOREN