Mixkatalog
 Einloggen
Login
Passwort

Deep Dance 026 Hits: 9  

Deep Dance 026


Kurzbeschreibung:
Deep Records präsentiert Deep Dance Volume 26. Gemixt von DJ Deep. Das Album enthielt zusätzlich einen Sticker. Auf diesem Album ist der Part 4 des Yearmix 1989 vom Deep Dance 4½ enthalten.
 
Crew/DJ: Deep Records Reihe: DD Serie by Deep
Stil: Dance Erscheinungsjahr: 1994
Anzahl Tonträger: 1 Spielzeit: 73:46
Trackliste:
    Deep Dance Take 26:
    Spieldauer 30'36
  1. Intro
  2. Unit feat. Red Bone - Move Your Body
  3. Africa Bambaataa - Pupunanny
  4. Mash - U Don't Have To Say You Love Me
  5. Basic Element - The Promised Man
  6. Cappella - You & Me
  7. Two Raff - Don't Stop The Music
  8. Le Click - Tonight Is The Night
  9. Savage - Don't You Want Me
  10. La Bouche - Sweet Dreams
  11. Heartattack - Get Me Going
  12. Black & White - Do You Now
  13. Ramirez - Bomba
  14. Two Coboys - Everybody Confi-Gon
  15. Corona - The Rhythm Of The Night
  16. Mr. President - Up & Away
  17. Ramirez - Bomba
  18. Cosmico Base - Chico's Dream
  19. Systomatic - Only 4 You
  20. Lian Ross - Keep This Feeling
  21. Den Harrow - You & The Sunshine
  22. Two Brothers On The 4th Floor - Dreams
  23. General Base - Bass Of Love III
  24. Corona - The Rhythm Of The Night
  25. MAXX - No More I Can't Stand It
    Deep Hard II:
    Spieldauer 21'28
  26. Ultrasonic - Annihilating Rhythm
  27. Westbam - Celebration Generation
  28. Marusha - It Takes Me Away
  29. Mark 'Oh - Randy, Never Stop This Feeling
  30. Westbam - Wizards Of The Sonic
  31. General Base - Bidi Bidi Do You Wanna Dance
  32. MC Sar - Automatic Lover
  33. Perplexer - Acid Folks
  34. Mark 'Oh - Love Song
  35. Meteor Seven - Signs Of Life
  36. Ilsa Gold - Silke III, Süchtig
    Hit Mix 89 Part 4:
    Spieldauer 21'41
  37. Neneh Cherry - Buffalo Stance
  38. Chaka Khan - Ain't Nobody
  39. Alyson Williams - Sleep Talk
  40. Holly Johnson - Love Train
  41. Fine Young Cannibals - She Drives Me Crazy
  42. Jody Watley - Real Love
  43. Redhead Kingpin - Do The Right Thing
  44. Kylie Minogue - Wouldn't Change A Thing
  45. Holly Johnson - Americanos
  46. Bobby Brown - My Prerogative
  47. Sydney Youngblood - Sit & Wait
  48. Adeva - Musical Freedom
  49. The Source feat. Candi Staton - You Got The Love
  50. Madonna - Like A Prayer
  51. Janet Jackon - Rhythm Nation
  52. Chaka Khan - I'm Every Woman
  53. Turntable Orchestra - You're Gonna Miss Me
  54. Madonna - Express Yourself
  55. Janet Jackson - Miss You Much
  56. Tony Carey - Room With A View
  57. Donna Summer - This Time I Know It's For Real
  58. Big Fun - Blame It On The Boogie
  59. Tone Loc - Funky Cold Medina
  60. Mysterious Art - Das Omen Part 1
  61. Chanelle - One Man
  62. Young MC - Bust A Move
  63. Doug Lazy - Let It Roll
Cue-Informationen:

FILE "filename.mp3" MP3 
  TRACK 01 AUDIO
    INDEX 01 00:00:00
  TRACK 02 AUDIO
    INDEX 01 30:32:43
  TRACK 03 AUDIO
    INDEX 01 51:58:26
Wertung: ()   Hinzugefügt: 24 December 2009
Bewerte als Erster diesen Mix:
RSS Feed
RSS Feed
Sprache
Deutsch Englisch Französisch
Mixsuche
Suchbegriff
Genauer Wortlaut
Alle Worte (UND)
Ein Wort (ODER)
Statistik
15037 Mixe eingetragen
14719 Tracklisten
Newsletter
E-Mail
Anmelden
Abmelden
SPONSOREN