Mixkatalog
 Einloggen
Login
Passwort

Deep Dance 004½ Hits: 1  

Deep Dance 004½


Kurzbeschreibung:
Deep präsentiert Deep Dance Volume 4½, Yearmix 1989, gemixt von DJ Deep. Dieser Yearmix erschien nachträglich und wurde darum mit ½ benannt. Part 4 ist auf dem Deep Dance 26 enthalten. Wer kennt die fehlenden Tracks?
 
Crew/DJ: Deep Reihe: Deep Dance Serie
Stil: Pop Erscheinungsjahr: 1994
CDs: 1 Spielzeit: 67:58
Trackliste:
Cue-Informationen:

FILE "filename.mp3" MP3
  TRACK 01 AUDIO
    INDEX 01 00:00:00
  TRACK 02 AUDIO
    INDEX 01 01:58:12
  TRACK 03 AUDIO
    INDEX 01 23:10:60
  TRACK 04 AUDIO
    INDEX 01 45:54:02
Wertung: (3)  
Hinzugefügt: 23 December 2009
RSS Feed
RSS Feed
Sprache
Deutsch Englisch Französisch
Mixsuche
Suchbegriff
Genauer Wortlaut
Alle Worte (UND)
Ein Wort (ODER)
Statistik
29581 Mixe eingetragen
28170 Tracklisten
Newsletter
E-Mail
Anmelden
Abmelden
SPONSOREN