Mixkatalog
 Einloggen
Login
Passwort

Deep Dance 004½ Hits: 1  

Deep Dance 004½


Kurzbeschreibung:
Deep Records präsentiert Deep Dance Volume 4½, Yearmix 1989, gemixt von DJ Deep. Dieser Yearmix erschien nachträglich und wurde darum mit ½ benannt. Part 4 ist auf dem Deep Dance 26 enthalten. Wer kennt die fehlenden Tracks?
 
Crew/DJ: Deep Records Reihe: DD Serie by Deep
Stil: Pop Erscheinungsjahr: 1994
Anzahl Tonträger: 1 Spielzeit: 67:58
Trackliste:
    Hit Mix 1989 Part 1:
    Spieldauer 23'07
  1. Intro
  2. Yazz - Fine Time
  3. Milli Vanilli - I'm Gonna Miss You
  4. The Four Tops - The Sun Ain't Gonna Shine
  5. Roxette - Listen To Your Heart
  6. Axxis - Living In A World
  7. Alyson Williams - I Need Your Lovin'
  8. Neneh Cherry ‎- Manchild
  9. Fresh Four feat. Lizz E.- Wishing On A Star
  10. Queen - I Want It All
  11. The Cure - Lullaby
  12. Soul II Soul feat. Caron Wheeler - Keep On Movin'
  13. Paula Abdul - Straight Up
  14. Roxette - The Look
  15. Donny Osmond - Soldier Of Love
  16. Jason Donovan - Sealed With A Kiss
  17. Milli Vanilli - Blame It On The Rain
  18. Ice MC - Easy
  19. Soulsister - The Way To Your Heart
  20. The Fat Boys - If It Ain't One Thing It's Annuddah (Bruddah)
  21. Bobby Brown - Every Little Step
  22. Bobby Brown - On Your Own
  23. Soul II Soul feat. Caron Wheeler - Back To Life (However Do You Want Me)
  24. Phil Collins - Another Day In Paradise
  25. Lisa Stansfield - All Around The World
    Hit Mix 1989 Part 2:
    Spieldauer 22'40
  26. Rebel MC - Street Tuff
  27. Black Box - Ride On Time
  28. Doug Lazy - Let The Rhythm Pump
  29. The Blow Monkeys - Wait
  30. Donna Summer - I Don't Wanna Get Hurt
  31. Sydney Youngblood - If Only I Could
  32. F.P.I. Project - Rich In Paradise (Going Back To My Roots)
  33. Sonia - You'll Never Stop Me Loving You
  34. Adeva - Respect
  35. D-Mob - It Is Time To Get Funky
  36. Kylie Minogue - Hand On Your Heart
  37. Roxette - Dressed For Success
  38. Inner City - Ain't Nobody Better
  39. Simphonia - Can't Get Over Your Love
  40. D-Mob feat. Cathy Dennis - C'mon & Get My Love
  41. Ten City - That's The Way Love Is
  42. Culture Beat feat. Jo van Nelson - Der Erdbeermund
  43. Kaoma - Lambada
  44. Kaoma - Dançando Lambada
  45. Adeva - Warning!
  46. Liza Minnelli - Losing My Mind (Remix)
  47. Adeva - I Thank You
  48. Betty Boo - Hey DJ / I Can't Dance (To That Music You're Playing)
  49. LNR - Work It To The Bone
  50. Maurizio Pavesi feat. Lisa Scott - Love System
  51. Sigmund und Seine Freunde - Erdbeermund
  52. Frankie Knuckles feat. Jamie Principle - It's A Cold World
  53. Lisa Stansfield - People Hold On (Full Lenght Disco Mix)
  54. London Boys - Requiem
    Hit Mix 1989 Part 3:
    Spieldauer 22'03
  55. Rebel MC - Just Keep Rockin' (Skouse Mix)
  56. Kon Kan - I Beg Your Pardon
  57. Jason Donovan - Too Many Broken Hearts
  58. Jason Donovan - Every Day (I Love You More)
  59. The Mixmaster - Grand Piano (Club Mix)
  60. Out Of The Ordinary - Play It Again
  61. The Beatmasters - Ska Train
  62. Out Of The Ordinary - Play It Again (Remix)
  63. Lil Louis & The World - French Kiss
  64. Fast Eddie - Yo Yo Get Funky
  65. Tyree Cooper - Turn Up The Bass
  66. The Beatmasters - Who's In The House
  67. Beloved - The Sun Rising
  68. Precinct 13 - Listen To Your Heartbeart
  69. Starlight - Numero Uno
  70. Pet Shop Boys - It's Alright
  71. Raul Orellana - The Real Wild House
  72. Raven Maize - Forever Together
  73. ???
  74. Rebel MC - Just Keep Rockin' (Skouse Mix)
  75. Technotronic - Pump Up The Jam
  76. Werner Wichtig - Pump Ab Das Bier
  77. Pacha Rebels - Esta Loca
  78. Joe Smooth - Promised Land
  79. Lisa Stansfield - This Is The Right Time
  80. Monie Love - Grandpa's Party
  81. Camouflage - Love Is A Shield
  82. Belinda Carlisle - Leave A Light On
  83. Jive Bunny & The Mastermixers - Let's Twist Again
  84. Jive Bunny & The Mastermixers - Swing The Mood
Cue-Informationen:

FILE "filename.mp3" MP3
  TRACK 01 AUDIO
    INDEX 01 00:00:00
  TRACK 02 AUDIO
    INDEX 01 01:58:12
  TRACK 03 AUDIO
    INDEX 01 23:10:60
  TRACK 04 AUDIO
    INDEX 01 45:54:02
Wertung: (1)   Hinzugefügt: 23 December 2009
RSS Feed
RSS Feed
Sprache
Deutsch Englisch Französisch
Mixsuche
Suchbegriff
Genauer Wortlaut
Alle Worte (UND)
Ein Wort (ODER)
Statistik
14943 Mixe eingetragen
14627 Tracklisten
Newsletter
E-Mail
Anmelden
Abmelden
SPONSOREN