Mixkatalog
 Einloggen
Login
Passwort

Non Stop Megamix 13 Hits: 115  

Non Stop Megamix 13


Kurzbeschreibung:
WoM (World Of Mixes) präsentiert Non Stop Megamix Volume 13. 80'ties Mixe Volume 3.
 
Crew/DJ: World Of Mixes (WOM) Reihe: Non Stop Megamix
Stil: Pop Erscheinungsjahr: 2006
Anzahl Tonträger: 1 Spielzeit: 67:42
Trackliste:
Cue-Informationen:

FILE "filename.mp3" MP3
  TRACK 01 AUDIO
    INDEX 01 00:00:00
  TRACK 02 AUDIO
    INDEX 01 06:26:05
  TRACK 03 AUDIO
    INDEX 01 12:03:72
  TRACK 04 AUDIO
    INDEX 01 18:10:29
  TRACK 05 AUDIO
    INDEX 01 24:59:15
  TRACK 06 AUDIO
    INDEX 01 31:46:23
  TRACK 07 AUDIO
    INDEX 01 37:33:26
  TRACK 08 AUDIO
    INDEX 01 42:56:07
  TRACK 09 AUDIO
    INDEX 01 48:59:30
  TRACK 10 AUDIO
    INDEX 01 56:02:56
  TRACK 11 AUDIO
    INDEX 01 61:25:63
Wertung: (5)  
Hinzugefügt: 10 October 2011
RSS Feed
RSS Feed
Sprache
Deutsch Englisch Französisch
Mixsuche
Suchbegriff
Genauer Wortlaut
Alle Worte (UND)
Ein Wort (ODER)
Statistik
36610 Mixe eingetragen
34627 Tracklisten
Newsletter
E-Mail
Anmelden
Abmelden
SPONSOREN