Mixkatalog
 Einloggen
Login
Passwort

Dance Party 3 Hits: 78  

Dance Party 3


Kurzbeschreibung:
?? Records präsentiert Dance Party Volume 3, gemixt von DJ Vortex.
 
Crew/DJ: ?? Records Reihe: Dance Party
Stil: Dance Erscheinungsjahr: 2000
Anzahl Tonträger: 1 Spielzeit: 77:12
Trackliste:
Cue-Informationen:

FILE "filename.mp3" MP3
  TRACK 01 AUDIO
    INDEX 01 00:00:00
  TRACK 02 AUDIO
    INDEX 01 00:41:52
  TRACK 03 AUDIO
    INDEX 01 00:55:46
  TRACK 04 AUDIO
    INDEX 01 01:38:05
  TRACK 05 AUDIO
    INDEX 01 01:58:45
  TRACK 06 AUDIO
    INDEX 01 03:09:38
  TRACK 07 AUDIO
    INDEX 01 03:23:40
  TRACK 08 AUDIO
    INDEX 01 03:51:44
  TRACK 09 AUDIO
    INDEX 01 05:21:49
  TRACK 10 AUDIO
    INDEX 01 06:33:56
  TRACK 11 AUDIO
    INDEX 01 07:22:60
  TRACK 12 AUDIO
    INDEX 01 07:50:66
  TRACK 13 AUDIO
    INDEX 01 08:48:62
  TRACK 14 AUDIO
    INDEX 01 10:22:03
  TRACK 15 AUDIO
    INDEX 01 10:50:09
  TRACK 16 AUDIO
    INDEX 01 11:48:10
  TRACK 17 AUDIO
    INDEX 01 12:02:09
  TRACK 18 AUDIO
    INDEX 01 12:58:32
  TRACK 19 AUDIO
    INDEX 01 14:43:37
  TRACK 20 AUDIO
    INDEX 01 15:40:11
  TRACK 21 AUDIO
    INDEX 01 16:38:14
  TRACK 22 AUDIO
    INDEX 01 16:59:17
  TRACK 23 AUDIO
    INDEX 01 18:37:42
  TRACK 24 AUDIO
    INDEX 01 19:07:32
  TRACK 25 AUDIO
    INDEX 01 20:42:07
  TRACK 26 AUDIO
    INDEX 01 21:51:52
  TRACK 27 AUDIO
    INDEX 01 21:59:19
  TRACK 28 AUDIO
    INDEX 01 22:36:53
  TRACK 29 AUDIO
    INDEX 01 23:38:37
  TRACK 30 AUDIO
    INDEX 01 24:38:45
  TRACK 31 AUDIO
    INDEX 01 24:52:68
  TRACK 32 AUDIO
    INDEX 01 25:47:69
  TRACK 33 AUDIO
    INDEX 01 27:22:05
  TRACK 34 AUDIO
    INDEX 01 29:04:03
  TRACK 35 AUDIO
    INDEX 01 30:25:39
  TRACK 36 AUDIO
    INDEX 01 31:59:59
  TRACK 37 AUDIO
    INDEX 01 33:51:24
  TRACK 38 AUDIO
    INDEX 01 35:16:05
  TRACK 39 AUDIO
    INDEX 01 36:34:37
  TRACK 40 AUDIO
    INDEX 01 38:03:48
  TRACK 41 AUDIO
    INDEX 01 39:20:10
  TRACK 42 AUDIO
    INDEX 01 40:43:74
  TRACK 43 AUDIO
    INDEX 01 42:26:52
  TRACK 44 AUDIO
    INDEX 01 43:57:54
  TRACK 45 AUDIO
    INDEX 01 44:49:61
  TRACK 46 AUDIO
    INDEX 01 46:24:40
  TRACK 47 AUDIO
    INDEX 01 47:27:20
  TRACK 48 AUDIO
    INDEX 01 48:46:13
  TRACK 49 AUDIO
    INDEX 01 50:05:58
  TRACK 50 AUDIO
    INDEX 01 51:44:63
  TRACK 51 AUDIO
    INDEX 01 52:47:16
  TRACK 52 AUDIO
    INDEX 01 54:39:44
  TRACK 53 AUDIO
    INDEX 01 56:10:30
  TRACK 54 AUDIO
    INDEX 01 57:25:36
  TRACK 55 AUDIO
    INDEX 01 57:42:13
  TRACK 56 AUDIO
    INDEX 01 64:12:26
  TRACK 57 AUDIO
    INDEX 01 68:02:64
  TRACK 58 AUDIO
    INDEX 01 71:30:18
  TRACK 59 AUDIO
    INDEX 01 74:02:69
Wertung: ()  
Hinzugefügt: 17 November 2009
Bewerte als Erster diesen Mix:
RSS Feed
RSS Feed
Sprache
Deutsch Englisch Französisch
Mixsuche
Suchbegriff
Genauer Wortlaut
Alle Worte (UND)
Ein Wort (ODER)
Statistik
12280 Mixe eingetragen
12009 Tracklisten
Newsletter
E-Mail
Anmelden
Abmelden
SPONSOREN