Mixkatalog
 Einloggen
Login
Passwort

Deep Dance 05 Hits: 73  

Deep Dance 05


Kurzbeschreibung:
SWG präsentiert Deep Dance 2005 Volume 5. 80 Dance Hits im exklusiven Megamix, gemixt von DJ Deep.
 
Crew/DJ: SWG Reihe: Deep Dance
Stil: Dance Erscheinungsjahr: 2005
Anzahl Tonträger: 2 Spielzeit: 158:10
Trackliste:
Cue-Informationen:

FILE "filename CD 1.mp3" MP3
  TRACK 01 AUDIO
    INDEX 01 00:00:00
  TRACK 02 AUDIO
    INDEX 01 02:44:56
  TRACK 03 AUDIO
    INDEX 01 04:29:23
  TRACK 04 AUDIO
    INDEX 01 06:33:48
  TRACK 05 AUDIO
    INDEX 01 09:38:56
  TRACK 06 AUDIO
    INDEX 01 11:47:33
  TRACK 07 AUDIO
    INDEX 01 14:25:62
  TRACK 08 AUDIO
    INDEX 01 16:41:02
  TRACK 09 AUDIO
    INDEX 01 18:02:09
  TRACK 10 AUDIO
    INDEX 01 19:40:10
  TRACK 11 AUDIO
    INDEX 01 21:18:06
  TRACK 12 AUDIO
    INDEX 01 23:10:37
  TRACK 13 AUDIO
    INDEX 01 25:54:10
  TRACK 14 AUDIO
    INDEX 01 27:21:16
  TRACK 15 AUDIO
    INDEX 01 29:26:56
  TRACK 16 AUDIO
    INDEX 01 31:01:56
  TRACK 17 AUDIO
    INDEX 01 32:21:56
  TRACK 18 AUDIO
    INDEX 01 33:41:02
  TRACK 19 AUDIO
    INDEX 01 34:39:61
  TRACK 20 AUDIO
    INDEX 01 36:02:55
  TRACK 21 AUDIO
    INDEX 01 37:24:52
  TRACK 22 AUDIO
    INDEX 01 39:44:11
  TRACK 23 AUDIO
    INDEX 01 40:51:54
  TRACK 24 AUDIO
    INDEX 01 42:29:36
  TRACK 25 AUDIO
    INDEX 01 44:09:13
  TRACK 26 AUDIO
    INDEX 01 45:31:34
  TRACK 27 AUDIO
    INDEX 01 49:10:52
  TRACK 28 AUDIO
    INDEX 01 51:29:01
  TRACK 29 AUDIO
    INDEX 01 53:03:34
  TRACK 30 AUDIO
    INDEX 01 54:55:72
  TRACK 31 AUDIO
    INDEX 01 56:06:41
  TRACK 32 AUDIO
    INDEX 01 58:04:56
  TRACK 33 AUDIO
    INDEX 01 61:22:11
  TRACK 34 AUDIO
    INDEX 01 62:56:21
  TRACK 35 AUDIO
    INDEX 01 66:13:62
  TRACK 36 AUDIO
    INDEX 01 68:23:02
  TRACK 37 AUDIO
    INDEX 01 69:59:53
  TRACK 38 AUDIO
    INDEX 01 71:43:05
  TRACK 39 AUDIO
    INDEX 01 75:31:09
  TRACK 40 AUDIO
    INDEX 01 77:20:52

FILE "filename CD 2.mp3" MP3
  TRACK 01 AUDIO
    INDEX 01 00:00:00
  TRACK 02 AUDIO
    INDEX 01 02:00:29
  TRACK 03 AUDIO
    INDEX 01 05:45:39
  TRACK 04 AUDIO
    INDEX 01 07:23:40
  TRACK 05 AUDIO
    INDEX 01 10:53:72
  TRACK 06 AUDIO
    INDEX 01 13:28:03
  TRACK 07 AUDIO
    INDEX 01 15:45:63
  TRACK 08 AUDIO
    INDEX 01 18:14:03
  TRACK 09 AUDIO
    INDEX 01 20:21:34
  TRACK 10 AUDIO
    INDEX 01 22:28:61
  TRACK 11 AUDIO
    INDEX 01 25:17:40
  TRACK 12 AUDIO
    INDEX 01 27:07:30
  TRACK 13 AUDIO
    INDEX 01 29:16:40
  TRACK 14 AUDIO
    INDEX 01 31:37:37
  TRACK 15 AUDIO
    INDEX 01 33:41:17
  TRACK 16 AUDIO
    INDEX 01 35:32:61
  TRACK 17 AUDIO
    INDEX 01 36:42:18
  TRACK 18 AUDIO
    INDEX 01 39:14:17
  TRACK 19 AUDIO
    INDEX 01 41:06:47
  TRACK 20 AUDIO
    INDEX 01 43:24:49
  TRACK 21 AUDIO
    INDEX 01 44:34:29
  TRACK 22 AUDIO
    INDEX 01 46:10:35
  TRACK 23 AUDIO
    INDEX 01 47:46:72
  TRACK 24 AUDIO
    INDEX 01 50:24:41
  TRACK 25 AUDIO
    INDEX 01 52:13:10
  TRACK 26 AUDIO
    INDEX 01 53:09:06
  TRACK 27 AUDIO
    INDEX 01 54:30:69
  TRACK 28 AUDIO
    INDEX 01 55:58:28
  TRACK 29 AUDIO
    INDEX 01 57:46:08
  TRACK 30 AUDIO
    INDEX 01 59:28:59
  TRACK 31 AUDIO
    INDEX 01 60:57:38
  TRACK 32 AUDIO
    INDEX 01 62:25:61
  TRACK 33 AUDIO
    INDEX 01 64:30:72
  TRACK 34 AUDIO
    INDEX 01 66:13:70
  TRACK 35 AUDIO
    INDEX 01 68:55:64
  TRACK 36 AUDIO
    INDEX 01 70:53:63
  TRACK 37 AUDIO
    INDEX 01 72:15:25
  TRACK 38 AUDIO
    INDEX 01 74:28:23
  TRACK 39 AUDIO
    INDEX 01 75:41:59
  TRACK 40 AUDIO
    INDEX 01 77:32:30
Wertung: ()  
Hinzugefügt: 24 February 2011
Bewerte als Erster diesen Mix:
RSS Feed
RSS Feed
Sprache
Deutsch Englisch Französisch
Mixsuche
Suchbegriff
Genauer Wortlaut
Alle Worte (UND)
Ein Wort (ODER)
Statistik
13079 Mixe eingetragen
12788 Tracklisten
Newsletter
E-Mail
Anmelden
Abmelden
SPONSOREN