Mixkatalog
 Einloggen
Login
Passwort

Pure Swing Megamix 4 Hits: 1  

Pure Swing Megamix 4


Kurzbeschreibung:
Shark Records präsentiert Pure Swing Megamix Volume 4.
 
Crew/DJ: Shark Records Reihe: Pure Swing
Stil: RnB Erscheinungsjahr: 1997
Anzahl Tonträger: 1 Spielzeit: 76:46
Trackliste:
  1. Nanchalant - Until The Day
  2. Barrio Soul Inc. - Summer In The City
  3. Fugees - Ready Or Not
  4. Valerie George - Being Single
  5. New Edition - Hit Me Off
  6. Keith Sweat - Twisted
  7. Busta Rhymes - It's A Party
  8. Aaliyah - If Your Girl Only Knew
  9. Hasan - All About The Money
  10. Gina Thompson - The Things That You Do
  11. 702 - Steelo
  12. Toni Braxton - You're Making Me High
  13. The Braxtons - So Many Way
  14. Toshi Kubota - Just The Two Of Us
  15. Jitaflick - No Bendin'
  16. Rappin' 4 Tay - A Lil' Some Some
  17. Louchie Lou - Good Sweet Love
  18. Zakiya - Love Like Mine
  19. Horace Brown - Things We Do For Love
  20. Cover Girls - I Am Woman
  21. Melieck Britt - I'm The Only Way
  22. Jay-Z - Can't Know The Hustle
  23. NAS - If I Ruled The Way
  24. 112 feat. Notorious B.I.G. - Only You
  25. CeCe Peniston - Movin' On
  26. Nu Colours - Special Kind Of Lover
  27. Michele - Do Me Baby
  28. Skindeep - Everybody
  29. Rodney Mannsfield - Call Me
  30. Shades - Tell Me
  31. Warren G. - What's Love Got To Do...
  32. Finesse - Summertime
  33. Blacksmith - Baby, Baby
  34. Groove Theory - Baby Luv
  35. Troi - Angel
  36. LL Cool J - Loughin'
  37. Mark Morrison - Crazy
  38. Maxwell - Ascension
  39. Andre De Lange - A Friend
  40. Sandy Reed - Don't Worry
  41. Quincy Jones - Stomp
    Bonustrack:
  42. Whodini - Friends (Original 1984 12' + Samples By Nas)
  43. Astra - Wake Up To My Love (Original 1986 12' Version)
Cue-Informationen:

FILE "filename.mp3" MP3
  TRACK 01 AUDIO
    INDEX 01 00:00:00
  TRACK 02 AUDIO
    INDEX 01 01:47:10
  TRACK 03 AUDIO
    INDEX 01 02:56:40
  TRACK 04 AUDIO
    INDEX 01 04:35:55
  TRACK 05 AUDIO
    INDEX 01 06:24:70
  TRACK 06 AUDIO
    INDEX 01 07:40:35
  TRACK 07 AUDIO
    INDEX 01 09:29:62
  TRACK 08 AUDIO
    INDEX 01 11:39:07
  TRACK 09 AUDIO
    INDEX 01 12:43:67
  TRACK 10 AUDIO
    INDEX 01 14:30:17
  TRACK 11 AUDIO
    INDEX 01 15:53:45
  TRACK 12 AUDIO
    INDEX 01 17:07:45
  TRACK 13 AUDIO
    INDEX 01 18:52:05
  TRACK 14 AUDIO
    INDEX 01 20:47:05
  TRACK 15 AUDIO
    INDEX 01 21:49:15
  TRACK 16 AUDIO
    INDEX 01 23:43:32
  TRACK 17 AUDIO
    INDEX 01 25:17:30
  TRACK 18 AUDIO
    INDEX 01 27:11:62
  TRACK 19 AUDIO
    INDEX 01 29:14:37
  TRACK 20 AUDIO
    INDEX 01 30:56:20
  TRACK 21 AUDIO
    INDEX 01 33:00:45
  TRACK 22 AUDIO
    INDEX 01 34:21:17
  TRACK 23 AUDIO
    INDEX 01 35:52:05
  TRACK 24 AUDIO
    INDEX 01 37:33:65
  TRACK 25 AUDIO
    INDEX 01 38:33:65
  TRACK 26 AUDIO
    INDEX 01 40:14:52
  TRACK 27 AUDIO
    INDEX 01 41:52:17
  TRACK 28 AUDIO
    INDEX 01 43:16:50
  TRACK 29 AUDIO
    INDEX 01 44:55:52
  TRACK 30 AUDIO
    INDEX 01 46:00:22
  TRACK 31 AUDIO
    INDEX 01 47:39:12
  TRACK 32 AUDIO
    INDEX 01 49:18:22
  TRACK 33 AUDIO
    INDEX 01 50:57:25
  TRACK 34 AUDIO
    INDEX 01 52:36:25
  TRACK 35 AUDIO
    INDEX 01 54:26:52
  TRACK 36 AUDIO
    INDEX 01 55:44:37
  TRACK 37 AUDIO
    INDEX 01 56:52:42
  TRACK 38 AUDIO
    INDEX 01 58:03:05
  TRACK 39 AUDIO
    INDEX 01 59:56:20
  TRACK 40 AUDIO
    INDEX 01 61:48:05
  TRACK 41 AUDIO
    INDEX 01 63:26:02
  TRACK 42 AUDIO
    INDEX 01 66:33:32
  TRACK 43 AUDIO
    INDEX 01 71:15:15
Wertung: ()   Hinzugefügt: 15 October 2010
Bewerte als Erster diesen Mix:
RSS Feed
RSS Feed
Sprache
Deutsch Englisch Französisch
Mixsuche
Suchbegriff
Genauer Wortlaut
Alle Worte (UND)
Ein Wort (ODER)
Statistik
14943 Mixe eingetragen
14627 Tracklisten
Newsletter
E-Mail
Anmelden
Abmelden
SPONSOREN