Mixkatalog
 Einloggen
Login
Passwort

Deep Dance 073 Hits: 3  

Deep Dance 073


Kurzbeschreibung:
Deep präsentiert Deep Dance 73, Version 2004. Happy New Year Yearmix 2003. Dieser Mix erschien auch als Deep Yearmix Show 2003. Hier die nächste Nummer aus der Deep Edition Reihe. Auch Ägypt Serie genannt.
 
Crew/DJ: Deep Reihe: DD Serie Edition
Stil: Dance Erscheinungsjahr: 2004
Anzahl Tonträger: 1 Spielzeit: 78:13
Trackliste:
Cue-Informationen:

FILE "filename.mp3" MP3
  TRACK 01 AUDIO
    INDEX 01 00:00:00
  TRACK 02 AUDIO
    INDEX 01 01:32:04
  TRACK 03 AUDIO
    INDEX 01 18:41:30
  TRACK 04 AUDIO
    INDEX 01 32:58:64
  TRACK 05 AUDIO
    INDEX 01 48:04:39
  TRACK 06 AUDIO
    INDEX 01 60:14:33
Wertung: (3)  
Hinzugefügt: 13 February 2011
RSS Feed
RSS Feed
Sprache
Deutsch Englisch Französisch
Mixsuche
Suchbegriff
Genauer Wortlaut
Alle Worte (UND)
Ein Wort (ODER)
Statistik
35290 Mixe eingetragen
33400 Tracklisten
Newsletter
E-Mail
Anmelden
Abmelden
SPONSOREN