Mixkatalog
 Einloggen
Login
Passwort

The Yearmix Show 2003 Hits: 682  

The Yearmix Show 2003


Kurzbeschreibung:
Deep präsentiert The Yearmix Show 2003, gemixt von DJ Deep.
 
Crew/DJ: Deep Reihe: Deep Yearmix
Stil: Dance Erscheinungsjahr: 2003
CDs: 1 Spielzeit: 78:13
Trackliste:
Cue-Informationen:

FILE "filename.mp3" MP3
  TRACK 01 AUDIO
    INDEX 01 00:00:00
  TRACK 02 AUDIO
    INDEX 01 01:32:04
  TRACK 03 AUDIO
    INDEX 01 18:41:30
  TRACK 04 AUDIO
    INDEX 01 32:58:64
  TRACK 05 AUDIO
    INDEX 01 48:04:39
  TRACK 06 AUDIO
    INDEX 01 60:14:33
Wertung: (1)  
Hinzugefügt: 28 November 2010
RSS Feed
RSS Feed
Sprache
Deutsch Englisch Französisch
Mixsuche
Suchbegriff
Genauer Wortlaut
Alle Worte (UND)
Ein Wort (ODER)
Statistik
30001 Mixe eingetragen
28600 Tracklisten
Newsletter
E-Mail
Anmelden
Abmelden
SPONSOREN