Mixkatalog
 Einloggen
Login
Passwort

Deep Dance 072 (Orca Team Edition) Hits: 1  

Deep Dance 072 (Orca Team Edition)


Kurzbeschreibung:
Deep Records präsentiert Deep Dance 72 (OrcaTeam Edition). Gemixt vom Orca Team.
 
Crew/DJ: Deep Records Reihe: DD Serie Erstauflage
Stil: Dance Erscheinungsjahr: 2001
Anzahl Tonträger: 1 Spielzeit: 70:21
Trackliste:
    Deep Dance Take 72:
    Spieldauer 38'59
  1. Intro
  2. Kylie Minogue - Your Disco Needs You
  3. Melanie Thornton - Heartbeat
  4. Papa 'N' Star - Get It On
  5. Regina - You Don't Fool Me
  6. X-Ray - Stranda Delia Muscio
  7. Markus - Ce Soir
  8. Masterboy - Ride Like The Wind
  9. Ricky Martin - If You Ever Saw Her
  10. J.T. Company - Wake Me Tonight
  11. D.J. Bobo - Moscow
  12. Roxette - Make My Heart Go Pop
  13. ATC - Lonely
  14. Lexy & K. Paul - You're The One
  15. Objectors - Let's Party Tonight
  16. Eiffel 65 - Back In Time
  17. Dania G - Dream To Me
  18. Orlando - Seasons In The Sun
  19. Sound On Line - Creaping
  20. Millane Fernandes - Bom Bom
  21. Fragma - You Are Alive
  22. RMB - Deep Down Below
  23. Resistance D - You Where There
  24. Kriss Greko - Surrender
  25. D.A.E.R. - Think Of You
  26. Das Saint - One More Time
  27. Safari Dou - Played Alive
  28. Fun T.C. - Yuppia
  29. Vengaboys - Take Me 2 The City
  30. Melanie C. - I Turn To You
  31. Me & My - Be Loving You
  32. Sash! - Together Again
  33. Plaything - Into Space
  34. Suezia - I Wanna Feel
  35. Kika - S.O.S.
  36. D.Jay RPM - Pussy Pussy
  37. Modern Talking - Win The Race
  38. Cookies & Cream - Always On My Mind
  39. Unknown Artist - Can You Feel It (My Heartbeat)
  40. Britney Spears - Don't Let Me Be
  41. Rabanne - By By (Good Follow Baby)
  42. Vanni G. - Time Is Over
  43. Mabel - Melba
  44. Lisa - An Angel
  45. Aurora - Ordinary World
    Deep Slow:
    Spieldauer 31'22
  46. Melanie Thornton - Love How You Love Me
  47. R. Kelly - The Storm Is Over Mow
  48. Shaggy - Angel
  49. Wycelef Jean - 911
  50. Backstreet Boys - Not For Me
  51. Outkast - Mrs. Jackson
  52. Robbie Williams - Surpreme
  53. Lee Ann Rimes - Can't Fight The Moonlight
  54. Jessica Folker - To Be Able To Love
  55. Roxette - The Center Of The Heart
  56. Westlife - I Lay My Love On You
  57. Bramdy vs. Ray J - Another Day In Paradise
  58. Jennifer Lopez - Ain't It Funny
  59. No Angels - Be Loving You
  60. Samantha Numba - Always Come Back For You Love
  61. T. Seven - Hey Mr. President
  62. Thomas Gottschalk & Die Besorgten Väter - What Happend To Rock 'N' Roll
  63. A*Teens - To The Music
  64. Samantha Numba - Gotta Tell You
  65. N-Trance feat. Rod Stewart - Da Ya Think I'm Sexy
  66. Janet Jackson - All For You
  67. Me & My - So Many Men So Little Time
  68. Baha Men - You All Dat
  69. Modern Talking - Witch Queen Of Eldorado
  70. Whigfield - Much More
  71. STG 77 - You're In The Army Now
  72. Serum - Sleep Into The Night
  73. Natasha - Sweet La La Love
Cue-Informationen:

FILE "filename.mp3" MP3
  TRACK 01 AUDIO
    INDEX 01 00:00:00
  TRACK 02 AUDIO
    INDEX 01 00:40:74
  TRACK 03 AUDIO
    INDEX 01 38:54:69
Wertung: (1)  
Hinzugefügt: 29 December 2009
RSS Feed
RSS Feed
Sprache
Deutsch Englisch Französisch
Mixsuche
Suchbegriff
Genauer Wortlaut
Alle Worte (UND)
Ein Wort (ODER)
Statistik
14711 Mixe eingetragen
14399 Tracklisten
Newsletter
E-Mail
Anmelden
Abmelden
SPONSOREN