Mixkatalog
 Einloggen
Login
Passwort

Deep Dance 067 (After 2 Years Of Fakes) Hits: 547  

Deep Dance 067 (After 2 Years Of Fakes)


Kurzbeschreibung:
Deep präsentiert Deep Dance 67 After 2 Years Of Fakes. Gemixt vom DDE Team. 2 Jahre nach dem letzten Original kommt eine neue Edition Gruppe auf den Markt. Hier die erste Nummer aus der Deep Edition Reihe. Auch Egypt Reihe genannt.
 
Crew/DJ: Deep Reihe: DD Serie Edition
Stil: Dance Erscheinungsjahr: 2002
Anzahl Tonträger: 1 Spielzeit: 78:41
Trackliste:
Cue-Informationen:

FILE "filename.mp3" MP3
  TRACK 01 AUDIO
    INDEX 01 00:00:00
  TRACK 02 AUDIO
    INDEX 01 01:10:27
  TRACK 03 AUDIO
    INDEX 01 40:24:00
  TRACK 04 AUDIO
    INDEX 01 61:55:74
Wertung: (1)  
Hinzugefügt: 28 December 2009
RSS Feed
RSS Feed
Sprache
Deutsch Englisch Französisch
Mixsuche
Suchbegriff
Genauer Wortlaut
Alle Worte (UND)
Ein Wort (ODER)
Statistik
12818 Mixe eingetragen
12564 Tracklisten
Newsletter
E-Mail
Anmelden
Abmelden
SPONSOREN