Mixkatalog
 Einloggen
Login
Passwort

Deep Dance 063 Hits: 122  

Deep Dance 063


Kurzbeschreibung:
Deep präsentiert Deep Dance Volume 63, The Yearmix Show 1999 (The Best Sound of 1999). Gemixt von DJ Deep. Mix in einer Papphülle erschienen.
 
Crew/DJ: Deep Reihe: Deep Dance Serie
Stil: Dance Erscheinungsjahr: 2000
CDs: 1 Spielzeit: 73:19
Trackliste:
Cue-Informationen:

FILE "filename.mp3" MP3
  TRACK 01 AUDIO
    INDEX 01 00:00:00
  TRACK 02 AUDIO
    INDEX 01 07:41:23
  TRACK 03 AUDIO
    INDEX 01 16:36:68
  TRACK 04 AUDIO
    INDEX 01 22:30:46
  TRACK 05 AUDIO
    INDEX 01 28:37:22
  TRACK 06 AUDIO
    INDEX 01 34:41:56
  TRACK 07 AUDIO
    INDEX 01 43:45:20
  TRACK 08 AUDIO
    INDEX 01 49:49:68
  TRACK 09 AUDIO
    INDEX 01 57:16:52
  TRACK 10 AUDIO
    INDEX 01 65:01:22
Wertung: (12)  
Hinzugefügt: 28 December 2009
RSS Feed
RSS Feed
Sprache
Deutsch Englisch Französisch
Mixsuche
Suchbegriff
Genauer Wortlaut
Alle Worte (UND)
Ein Wort (ODER)
Statistik
34691 Mixe eingetragen
32812 Tracklisten
Newsletter
E-Mail
Anmelden
Abmelden
SPONSOREN