Mixkatalog
 Einloggen
Login
Passwort

Deep Dance 061 Hits: 2  

Deep Dance 061


Kurzbeschreibung:
Deep Records präsentiert Deep Dance Volume 61. Gemixt von DJ Deep. Mix in einer Papphülle erschienen.
 
Crew/DJ: Deep Records Reihe: DD Serie by Deep
Stil: Dance Erscheinungsjahr: 1999
Anzahl Tonträger: 1 Spielzeit: 71:25
Trackliste:
    Deep Dance Take 61:
    Spieldauer 35'41
  1. Intro
  2. DJ Bobo - Together
  3. Lord Razor - My Definition Of Trance
  4. Jump & Joy - Let's Roll I Like It
  5. Lightforce - Eternity
  6. Mark 'Oh vs. John Davies - Your Love
  7. ZE Express feat. Caprice - Reach Out
  8. Cosmic Gate - Mental Atmosphere
  9. Aquagen - Ihr Seid So Leise
  10. Der Verfall - Vater Unser
  11. Perfect Phase - Horny Horns
  12. Poco Loco Gang - Tropical Paradise
  13. 666 - Bomba!
  14. Patrick Victorio - Middle Of The Night
  15. Meteor Seven - Fantasy To Reality
  16. Secilia - As Good As You
  17. Nalin & Kane - Open Your Eyes
  18. Fragma - Toca Me
  19. Jump & Joy - Let's Roll I Like It
  20. Roxette - Stars
  21. Tatjana - Crazy Way About You
  22. Fladenbrot - Was Guckst Du Lan?
  23. 666 - Bomba!
  24. DJs Unlimited - La Serenissima
  25. Aladja - Colour Of The Night
  26. Avant Garde - Get Down
  27. Avancada - Go!
  28. Inferno DJ's - Why Don't You
  29. The Onions - Land Of The Onions
  30. Bcharme - This Is My World
  31. Alexia - Goodbye
  32. La Bionda - Eeah Dada!
  33. More - 4 Ever With Me
  34. Bossi - Reality
  35. Planet Core - Duel Of The Fates
  36. Mark Prongo - Moving Thru Your System
  37. B.B.E. - Seven Days & One Week 99
  38. The Sexual Preacher - Don't Dance... Fuck
  39. DJ Quicksilver - Cosmophobia
  40. Double You - Desperado
  41. Mix & Magix - Atmen
  42. DJ Phoen feat. Sanna - Keep On Jumpin'
  43. Big Room - Drum Loc
  44. DJ Taylor & Flow - Gott Tanzte
  45. Niels van Gogh - Doppelgänger
  46. Mellow Trax - Outta Space
  47. X-Perience - Journey Of Life
  48. Texas - Summer Son
  49. Tom Novy feat. Virginia - I Rock
  50. Bob Marley feat. Funkstar De Luxe - Sun Is Shining
    Deep Häuschen 14:
    Spieldauer 13'57
  51. Intro
  52. Moloko - Sing It Back
  53. Lost 'N' Alive - Everything I Play
  54. Nerios Dubwork feat. Darryl Pandy - Sunshine & Happiness
  55. Kiez Kidz - I Found It, Yes It's You
  56. Paul Johnson - Get Get Down
  57. Kamasutra - Where Is The Love
  58. Chili Hilly - Is It Love
  59. Chicago Southside - Chicago Southside
  60. ??? - White Label
  61. DJ Lazar feat. Elliott - Get Busy
  62. Phats & Small - Feel Good
  63. Deaf 'N' Dumb Crew - Chicayork
  64. A 1 - Be The First To Believe
  65. Earth, Wind & Fire - September 99
  66. Lisa vs. Resolver - Feel It
  67. Love & Peace Orchestra - Holdin' On
  68. The 3 Jays - Feeling It Too
    Deep Slow 17:
    Spieldauer 21'49
  69. Intro
  70. Sonat feat. Mr. Soop - Let Me Hear You (He Hoo)
  71. TQ - Better Days
  72. Missy Elliott feat. MC Solaar - All 'N' My Girl
  73. Q-Connection - Bei Mir Bist Du Schön
  74. Christina Aguilera - Genie In A Bottle
  75. Sabrina Setlur - Ich Leb Für Dich
  76. Nate Dogg feat. Warren G. - Nobody Does It Better
  77. Eminem feat. Dr. Dre - Guilty Conscience
  78. Lene Marlin - Unforgivable Sinner
  79. Lutricia McNeal - 365 Days
  80. Enrique Iglesias - Bailamos
  81. Lyte Funky Ones - Summergirls
  82. Geri Halliwell - Mi Chico Latino
  83. T-Spoon - Summer Love
  84. Britney Spears - (You Drive Me) Crazy
  85. Die Fantastischen Vier - Le Smou
  86. Aura - When I See You Again
  87. Die Fantastischen Vier - Le Smou
  88. Backstreet Boys - Larger Than Life
  89. Spike - Responsible
  90. Puff Daddy - Public Enemy 2000
  91. Blue 4 U - Livin' In Jam
Cue-Informationen:

FILE "filename.mp3" MP3
  TRACK 01 AUDIO
    INDEX 01 00:00:00
  TRACK 02 AUDIO
    INDEX 01 35:43:35
  TRACK 03 AUDIO
    INDEX 01 49:42:74
Wertung: ()   Hinzugefügt: 28 December 2009
Bewerte als Erster diesen Mix:
RSS Feed
RSS Feed
Sprache
Deutsch Englisch Französisch
Mixsuche
Suchbegriff
Genauer Wortlaut
Alle Worte (UND)
Ein Wort (ODER)
Statistik
14805 Mixe eingetragen
14492 Tracklisten
Newsletter
E-Mail
Anmelden
Abmelden
SPONSOREN