Mixkatalog
 Einloggen
Login
Passwort

Deep Dance 061 Hits: 112  

Deep Dance 061


Kurzbeschreibung:
Deep präsentiert Deep Dance Volume 61. Gemixt von DJ Deep. Mix in einer Papphülle erschienen.
 
Crew/DJ: Deep Reihe: DD Serie by Deep
Stil: Dance Erscheinungsjahr: 1999
Anzahl Tonträger: 1 Spielzeit: 71:25
Trackliste:
Cue-Informationen:

FILE "filename.mp3" MP3
  TRACK 01 AUDIO
    INDEX 01 00:00:00
  TRACK 02 AUDIO
    INDEX 01 35:43:35
  TRACK 03 AUDIO
    INDEX 01 49:42:74
Wertung: (1)  
Hinzugefügt: 28 December 2009
RSS Feed
RSS Feed
Sprache
Deutsch Englisch Französisch
Mixsuche
Suchbegriff
Genauer Wortlaut
Alle Worte (UND)
Ein Wort (ODER)
Statistik
12962 Mixe eingetragen
12672 Tracklisten
Newsletter
E-Mail
Anmelden
Abmelden
SPONSOREN