Mixkatalog
 Einloggen
Login
Passwort

Deep Dance 060 Hits: 95  

Deep Dance 060


Kurzbeschreibung:
Deep präsentiert Deep Dance Volume 60. Gemixt von DJ Deep. Mix in einer Papphülle erschienen.
 
Crew/DJ: Deep Reihe: DD Serie by Deep
Stil: Dance Erscheinungsjahr: 1999
Anzahl Tonträger: 1 Spielzeit: 73:35
Trackliste:
Cue-Informationen:

FILE "filename.mp3" MP3
  TRACK 01 AUDIO
    INDEX 01 00:00:00
  TRACK 02 AUDIO
    INDEX 01 32:17:43
  TRACK 03 AUDIO
    INDEX 01 57:21:73
Wertung: ()  
Hinzugefügt: 28 December 2009
Bewerte als Erster diesen Mix:
RSS Feed
RSS Feed
Sprache
Deutsch Englisch Französisch
Mixsuche
Suchbegriff
Genauer Wortlaut
Alle Worte (UND)
Ein Wort (ODER)
Statistik
35712 Mixe eingetragen
33766 Tracklisten
Newsletter
E-Mail
Anmelden
Abmelden
SPONSOREN