Mixkatalog
 Einloggen
Login
Passwort

Deep Dance 050 Hits: 254  

Deep Dance 050


Kurzbeschreibung:
Deep präsentiert Deep Dance Volume 50. Gemixt von DJ Deep. Mix erschien zum 10 jährigen bestehen von Deep Dance und das in einer Metallbox! Historybook Deep 50. Jetzt mit Videomix von DJ Crazy DK.
 
Crew/DJ: Deep Reihe: DD Serie by Deep
Stil: Dance Erscheinungsjahr: 1997
Anzahl Tonträger: 2 Spielzeit: 148:19
Trackliste:
Cue-Informationen:

FILE "filename CD 1.mp3" MP3
  TRACK 01 AUDIO
    INDEX 01 00:00:30
  TRACK 02 AUDIO
    INDEX 01 18:18:15
  TRACK 03 AUDIO
    INDEX 01 29:18:30
  TRACK 04 AUDIO
    INDEX 01 40:37:65
  TRACK 05 AUDIO
    INDEX 01 51:20:32
  TRACK 06 AUDIO
    INDEX 01 62:51:40

FILE "filename CD 2.mp3" MP3
  TRACK 01 AUDIO
    INDEX 01 00:00:00
  TRACK 02 AUDIO
    INDEX 01 19:22:43
  TRACK 03 AUDIO
    INDEX 01 31:02:57
  TRACK 04 AUDIO
    INDEX 01 41:56:44
  TRACK 05 AUDIO
    INDEX 01 52:12:71
  TRACK 06 AUDIO
    INDEX 01 63:39:03
Wertung: (4)  
Hinzugefügt: 28 December 2009
RSS Feed
RSS Feed
Sprache
Deutsch Englisch Französisch
Mixsuche
Suchbegriff
Genauer Wortlaut
Alle Worte (UND)
Ein Wort (ODER)
Statistik
35708 Mixe eingetragen
33762 Tracklisten
Newsletter
E-Mail
Anmelden
Abmelden
SPONSOREN