Mixkatalog
 Einloggen
Login
Passwort

Deep Dance 044 Hits: 191  

Deep Dance 044


Kurzbeschreibung:
Deep präsentiert Deep Dance Volume 44. Gemixt von DJ Deep. Mix erschien in der Pappbox.
 
Crew/DJ: Deep Reihe: Deep Dance Serie
Stil: Dance Erscheinungsjahr: 1996
CDs: 1 Spielzeit: 76:50
Trackliste:
Cue-Informationen:

FILE "filename.mp3" MP3
  TRACK 01 AUDIO
    INDEX 01 00:00:00
  TRACK 02 AUDIO
    INDEX 01 00:52:65
  TRACK 03 AUDIO
    INDEX 01 28:25:65
  TRACK 04 AUDIO
    INDEX 01 28:48:37
  TRACK 05 AUDIO
    INDEX 01 29:18:55
  TRACK 06 AUDIO
    INDEX 01 29:48:40
  TRACK 07 AUDIO
    INDEX 01 30:49:30
  TRACK 08 AUDIO
    INDEX 01 31:19:12
  TRACK 09 AUDIO
    INDEX 01 32:20:10
  TRACK 10 AUDIO
    INDEX 01 33:35:62
  TRACK 11 AUDIO
    INDEX 01 35:00:57
  TRACK 12 AUDIO
    INDEX 01 36:00:57
  TRACK 13 AUDIO
    INDEX 01 36:37:02
  TRACK 14 AUDIO
    INDEX 01 37:22:60
  TRACK 15 AUDIO
    INDEX 01 38:36:15
  TRACK 16 AUDIO
    INDEX 01 39:25:40
  TRACK 17 AUDIO
    INDEX 01 39:55:12
  TRACK 18 AUDIO
    INDEX 01 41:07:47
  TRACK 19 AUDIO
    INDEX 01 42:11:00
  TRACK 20 AUDIO
    INDEX 01 42:32:67
  TRACK 21 AUDIO
    INDEX 01 43:36:30
  TRACK 22 AUDIO
    INDEX 01 44:39:60
  TRACK 23 AUDIO
    INDEX 01 46:13:70
  TRACK 24 AUDIO
    INDEX 01 47:20:60
  TRACK 25 AUDIO
    INDEX 01 48:28:55
  TRACK 26 AUDIO
    INDEX 01 49:33:57
  TRACK 27 AUDIO
    INDEX 01 49:54:00
  TRACK 28 AUDIO
    INDEX 01 50:54:47
  TRACK 29 AUDIO
    INDEX 01 52:05:00
  TRACK 30 AUDIO
    INDEX 01 52:34:50
  TRACK 31 AUDIO
    INDEX 01 53:34:25
  TRACK 32 AUDIO
    INDEX 01 54:33:20
  TRACK 33 AUDIO
    INDEX 01 55:53:70
  TRACK 34 AUDIO
    INDEX 01 56:51:65
  TRACK 35 AUDIO
    INDEX 01 58:08:57
  TRACK 36 AUDIO
    INDEX 01 58:47:07
  TRACK 37 AUDIO
    INDEX 01 59:39:20
  TRACK 38 AUDIO
    INDEX 01 60:46:60
  TRACK 39 AUDIO
    INDEX 01 61:43:60
  TRACK 40 AUDIO
    INDEX 01 63:08:17
  TRACK 41 AUDIO
    INDEX 01 64:04:62
  TRACK 42 AUDIO
    INDEX 01 65:00:65
  TRACK 43 AUDIO
    INDEX 01 66:15:65
  TRACK 44 AUDIO
    INDEX 01 66:43:37
  TRACK 45 AUDIO
    INDEX 01 67:02:10
  TRACK 46 AUDIO
    INDEX 01 68:25:45
  TRACK 47 AUDIO
    INDEX 01 69:28:22
  TRACK 48 AUDIO
    INDEX 01 70:12:45
  TRACK 49 AUDIO
    INDEX 01 71:07:67
  TRACK 50 AUDIO
    INDEX 01 71:29:55
  TRACK 51 AUDIO
    INDEX 01 72:15:70
  TRACK 52 AUDIO
    INDEX 01 73:08:07
  TRACK 53 AUDIO
    INDEX 01 73:59:65
  TRACK 54 AUDIO
    INDEX 01 75:25:15
  TRACK 55 AUDIO
    INDEX 01 75:50:10
Wertung: (20)  
Hinzugefügt: 28 December 2009
RSS Feed
RSS Feed
Sprache
Deutsch Englisch Französisch
Mixsuche
Suchbegriff
Genauer Wortlaut
Alle Worte (UND)
Ein Wort (ODER)
Statistik
29475 Mixe eingetragen
28070 Tracklisten
Newsletter
E-Mail
Anmelden
Abmelden
SPONSOREN