Mixkatalog
 Einloggen
Login
Passwort

Deep Dance 041 Hits: 261  

Deep Dance 041


Kurzbeschreibung:
Deep präsentiert Deep Dance Volume 41. Gemixt von DJ Deep. CD ist in einer Metallbox erschienen. Beinhaltet den Rest vom Yearmix 1995.
 
Crew/DJ: Deep Reihe: Deep Dance Serie
Stil: Dance Erscheinungsjahr: 1996
CDs: 1 Spielzeit: 77:00
Trackliste:
Cue-Informationen:

FILE "filename.mp3" MP3
  TRACK 01 AUDIO
    INDEX 01 00:00:00
  TRACK 02 AUDIO
    INDEX 01 01:18:27
  TRACK 03 AUDIO
    INDEX 01 32:46:27
  TRACK 04 AUDIO
    INDEX 01 57:29:20
Wertung: (18)  
Hinzugefügt: 28 December 2009
RSS Feed
RSS Feed
Sprache
Deutsch Englisch Französisch
Mixsuche
Suchbegriff
Genauer Wortlaut
Alle Worte (UND)
Ein Wort (ODER)
Statistik
30033 Mixe eingetragen
28406 Tracklisten
Newsletter
E-Mail
Anmelden
Abmelden
SPONSOREN