Mixkatalog
 Einloggen
Login
Passwort

Deep Dance 039 Hits: 260  

Deep Dance 039


Kurzbeschreibung:
Deep präsentiert Deep Dance Volume 39. Gemixt von DJ Deep. Mix erschien in einer Pappbox. Das Intro ist hier eine Weinachtsgeschichte von Onkel Hotte.
 
Crew/DJ: Deep Reihe: DD Serie by Deep
Stil: Dance Erscheinungsjahr: 1995
Anzahl Tonträger: 1 Spielzeit: 74:25
Trackliste:
Cue-Informationen:

FILE "filename.mp3" MP3
  TRACK 01 AUDIO
    INDEX 01 00:00:00
  TRACK 02 AUDIO
    INDEX 01 02:34:35
  TRACK 03 AUDIO
    INDEX 01 24:17:35
  TRACK 04 AUDIO
    INDEX 01 56:00:20
  TRACK 05 AUDIO
    INDEX 01 67:51:25
Wertung: (4)  
Hinzugefügt: 24 December 2009
RSS Feed
RSS Feed
Sprache
Deutsch Englisch Französisch
Mixsuche
Suchbegriff
Genauer Wortlaut
Alle Worte (UND)
Ein Wort (ODER)
Statistik
35708 Mixe eingetragen
33762 Tracklisten
Newsletter
E-Mail
Anmelden
Abmelden
SPONSOREN