Mixkatalog
 Einloggen
Login
Passwort

Deep Dance 039 Hits: 5  

Deep Dance 039


Kurzbeschreibung:
Deep Records präsentiert Deep Dance Volume 39. Gemixt von DJ Deep. Mix erschien in einer Pappbox. Das Intro ist hier eine Weihnachtsgeschichte von Onkel Hotte.
 
Crew/DJ: Deep Records Reihe: DD Serie by Deep
Stil: Dance Erscheinungsjahr: 1995
Anzahl Tonträger: 1 Spielzeit: 74:25
Trackliste:
    Deep Dance Take 39:
    Spieldauer 24'17
  1. Intro
  2. DFS - Ou Eee Ou
  3. Corona - I Don't Wanna Be A Star
  4. Gibson Brothers - Cuba '95
  5. 2 Fabiola - Play This Song
  6. La Bouche - I Love To Love
  7. Cobra - Born To Love
  8. Ace Of Base - Beautiful Life
  9. Orlando - Here Comes The Night
  10. Loop - Skate With Me
  11. Wildchild - Renegade Master
  12. Sqeezer - Scandy Randy
  13. DJ Panda feat. Alexia - Dreaming Of Fantasy
  14. Culture Beat - Get It Right
  15. Dynamic Base - All Of My Life
  16. Jack In The Box - I Will Be Your Love Forever
  17. D-Phase - Tell Me Why
  18. Lavinia Jones - Velvet Park
  19. Moratto - Radar System
  20. Beatmen - Na Na Na
  21. Nova - Feel It
  22. Imperio - Amor Infinitus
  23. Dolls United - Blechbochsen Roll
    Deep Slow 2:
    Spieldauer 31'42
  24. Coolio - Gangsta's Paradise
  25. Alliance Ethnik - Le Vert Tourne
  26. Bed & Breakfast - If You Were Mine
  27. Shaggy - Boombastic
  28. Peter Andre - Mysterius Girl
  29. Luniz - I Got 5 On It
  30. East 17 - Thunder
  31. Rednex - Rolling Home
  32. Fun Factory - Don't Go Away
  33. Diana King - Ain't Nobody
  34. Skee-Lo - I Wish
  35. Aleksey - Der, Der Gern Anders Wär
  36. La Verona - Love Of My Life
  37. Ace Of Base - Never Gonna Say I'm Sorry
  38. Ma-Radscha - Cuckoo Four Your Love
  39. Scatman John - Song Of Scatland
  40. Whigfield - Close To You
  41. Kenny Thomas - When I Think Of You
  42. Mariah Carey - Fantasy
  43. Alliance Ethnik - Honesty & Jalousie
  44. B.B. Nation - Too Many Walls
  45. Ace Of Base - Lucky Love
  46. Toy Shop - Bang Bang Bang
  47. Dana Dawson - 3 Is Family
  48. Fettes Brot - Nordisch By Nature
  49. Michelle Gayle - Happy Just To Be With You
  50. CJ Lewis - R To The A
  51. Backstreet Boys - We've Got It Going On
    Masterboy Spart Euch das Geld für die CD Part 2:
    Spieldauer 11'51
  52. Intro
  53. Masterboy - Get It On
  54. Masterboy - Let It Be
  55. Masterboy - Generation Of Love
  56. Masterboy - Feel The Fire
  57. Masterboy - Theme'The Third
  58. Masterboy - Anybody'Movin On
  59. Masterboy - Give Me Your Love
    Merry Mi-X-Mas 1:
    Spieldauer 6'34
  60. Intro
  61. DJ Bobo - It's Time For Christmas
  62. Grand D'Ance - White Christmas
  63. Kommisar Rex - Jingle Bells
  64. Fun Factory - Sad Christmas
  65. Real McCoy - Shining Star
  66. Outro
Cue-Informationen:

FILE "filename.mp3" MP3
  TRACK 01 AUDIO
    INDEX 01 00:00:00
  TRACK 02 AUDIO
    INDEX 01 02:34:35
  TRACK 03 AUDIO
    INDEX 01 24:17:35
  TRACK 04 AUDIO
    INDEX 01 56:00:20
  TRACK 05 AUDIO
    INDEX 01 67:51:25
Wertung: ()   Hinzugefügt: 24 December 2009
Bewerte als Erster diesen Mix:
RSS Feed
RSS Feed
Sprache
Deutsch Englisch Französisch
Mixsuche
Suchbegriff
Genauer Wortlaut
Alle Worte (UND)
Ein Wort (ODER)
Statistik
14805 Mixe eingetragen
14492 Tracklisten
Newsletter
E-Mail
Anmelden
Abmelden
SPONSOREN