Mixkatalog
 Einloggen
Login
Passwort

Deep Dance 030 Hits: 2  

Deep Dance 030


Kurzbeschreibung:
Deep Records präsentiert Deep Dance Volume 30. Gemixt von DJ Deep. Das Intro beginnt mit einem Weihnachtsgedicht von Onkel Hotte.
 
Crew/DJ: Deep Records Reihe: DD Serie by Deep
Stil: Dance Erscheinungsjahr: 1994
Anzahl Tonträger: 1 Spielzeit: 72:21
Trackliste:
    Deep Dance Take 30:
    Spieldauer 31'31
  1. Intro
  2. Jamie Price - Lies
  3. 2 Brothers On The 4th Floor - Let Me Be Free
  4. Silvia Coleman - Take My Breath Away
  5. Outhere Brothers - La La La Hey Hey
  6. Netzwerk - Passion
  7. DJ Space C. - Love Train
  8. Masterboy - Is This The Love
  9. Native Vision - Easy Life
  10. X-Pression - Come On
  11. Samira - When I Look Into Your Eyes
  12. Pharao - There Is A Star
  13. 3-O-Matic - Success
  14. Centory - Take It To The Limit
  15. DJ Company - Rhythm Of Love
  16. Natasha Wright - Lovely Lie
  17. Apollo 5 - Fly
  18. Intermission - Give Peace A Chance
  19. Comic - I Surrender To Your Love
  20. God's Groove - Into The Blue
    Deep Hard 4:
    Spieldauer 31'32
  21. Mark 'Oh - Tears Don't Lie
  22. DJ Errik - Burnin Up
  23. Rodriguez - Attacke
  24. DJ Hooligan - Rave Nation
  25. Damage Control - You've Go To Believe
  26. Raving Star - Raving Star
  27. Graphixx - Neverending Story
  28. Signal Response II - The Signal
  29. Marusha - Raveland
  30. U96 - Love Religion
  31. Deep Star - Somewhere Out There
    Bonus Dreck:
    Spieldauer 8'37
  32. Whigfield - Saturday Night
  33. DJ Professor - Rocking Me
  34. Ice MC - Think About The Way
  35. Il Examples - Let It Come Into Your Heart
  36. Datura - The 7th Hallucination
Cue-Informationen:

FILE "filename.mp3" MP3
  TRACK 01 AUDIO
    INDEX 01 00:00:00
  TRACK 02 AUDIO
    INDEX 01 01:16:57
  TRACK 03 AUDIO
    INDEX 01 31:32:10
  TRACK 04 AUDIO
    INDEX 01 63:44:07
Wertung: ()   Hinzugefügt: 24 December 2009
Bewerte als Erster diesen Mix:
RSS Feed
RSS Feed
Sprache
Deutsch Englisch Französisch
Mixsuche
Suchbegriff
Genauer Wortlaut
Alle Worte (UND)
Ein Wort (ODER)
Statistik
14805 Mixe eingetragen
14492 Tracklisten
Newsletter
E-Mail
Anmelden
Abmelden
SPONSOREN