Mixkatalog
 Einloggen
Login
Passwort

Deep Dance 030 Hits: 92  

Deep Dance 030


Kurzbeschreibung:
Deep Records präsentiert Deep Dance Volume 30. Gemixt von DJ Deep. Das Intro beginnt mit einem Weihnachtsgedicht von Onkel Hotte.
 
Crew/DJ: Deep Records Reihe: DD Serie by Deep
Stil: Dance Erscheinungsjahr: 1994
Anzahl Tonträger: 1 Spielzeit: 72:21
Trackliste:
Cue-Informationen:

FILE "filename.mp3" MP3
  TRACK 01 AUDIO
    INDEX 01 00:00:00
  TRACK 02 AUDIO
    INDEX 01 01:16:57
  TRACK 03 AUDIO
    INDEX 01 31:32:10
  TRACK 04 AUDIO
    INDEX 01 63:44:07
Wertung: (1)  
Hinzugefügt: 24 December 2009
RSS Feed
RSS Feed
Sprache
Deutsch Englisch Französisch
Mixsuche
Suchbegriff
Genauer Wortlaut
Alle Worte (UND)
Ein Wort (ODER)
Statistik
14581 Mixe eingetragen
14271 Tracklisten
Newsletter
E-Mail
Anmelden
Abmelden
SPONSOREN