Mixkatalog
 Einloggen
Login
Passwort

Deep Dance 024 Hits: 481  

Deep Dance 024


Kurzbeschreibung:
Deep präsentiert Deep Dance Volume 24. Gemixt von DJ Deep.
 
Crew/DJ: Deep Reihe: DD Serie by Deep
Stil: Dance Erscheinungsjahr: 1994
Anzahl Tonträger: 1 Spielzeit: 60:49
Trackliste:
Cue-Informationen:

FILE "filename.mp3" MP3 
  TRACK 01 AUDIO
    INDEX 01 00:00:00
  TRACK 02 AUDIO
    INDEX 01 32:51:33
  TRACK 03 AUDIO
    INDEX 01 45:13:38
Wertung: (4)  
Hinzugefügt: 23 December 2009
RSS Feed
RSS Feed
Sprache
Deutsch Englisch Französisch
Mixsuche
Suchbegriff
Genauer Wortlaut
Alle Worte (UND)
Ein Wort (ODER)
Statistik
12347 Mixe eingetragen
12061 Tracklisten
Newsletter
E-Mail
Anmelden
Abmelden
SPONSOREN