Mixkatalog
 Einloggen
Login
Passwort

Deep Dance 023 Hits: 278  

Deep Dance 023


Kurzbeschreibung:
Deep präsentiert Deep Dance Volume 23, Yearmix 1993. Gemixt von DJ Deep.
 
Crew/DJ: Deep Reihe: DD Serie by Deep
Stil: Pop Erscheinungsjahr: 1994
Anzahl Tonträger: 1 Spielzeit: 76:49
Trackliste:
Cue-Informationen:

FILE "filename.mp3" MP3 
  TRACK 01 AUDIO
    INDEX 01 00:00:00
  TRACK 02 AUDIO
    INDEX 01 25:59:00
  TRACK 03 AUDIO
    INDEX 01 50:29:50
Wertung: (5)  
Hinzugefügt: 23 December 2009
RSS Feed
RSS Feed
Sprache
Deutsch Englisch Französisch
Mixsuche
Suchbegriff
Genauer Wortlaut
Alle Worte (UND)
Ein Wort (ODER)
Statistik
13164 Mixe eingetragen
12872 Tracklisten
Newsletter
E-Mail
Anmelden
Abmelden
SPONSOREN