Mixkatalog
 Einloggen
Login
Passwort

Deep Dance 020 Hits: 2  

Deep Dance 020


Kurzbeschreibung:
Deep Records präsentiert Deep Dance Volume 20. Gemixt von DJ Deep. Der Bass Bumpers Megamix stammt von DMC und der Dance Classics Megamix ist der Dance Classics Vol. 2 von Mastermix Issue 53.
 
Crew/DJ: Deep Records Reihe: DD Serie by Deep
Stil: Dance Erscheinungsjahr: 1993
Anzahl Tonträger: 1 Spielzeit: 73:39
Trackliste:
    Deep Dance Take 20:
    Spieldauer 32'15
  1. Intro
  2. Freddie Mercury - Living On My Own
  3. Co.Ro feat. Taleesa - I Break Down & Cry
  4. Robin S. - Show Me Love
  5. Black Box - Rockin' To The Rhythm
  6. Freddie Mercury - Living On My Own
  7. Sybill - Stronger Together
  8. Pet Shop Boys - Go West
  9. DJ Bobo - Keep On Dancing
  10. 2 Junkies To The Rhythm - Placebo Love Affair
  11. Aladino - Make It Right Now
  12. Boney M. - Ma Baker '93
  13. Haddaway - Rock My Heart
  14. Urban Cookie Collective - The Key, The Secret
  15. Melodie MC - Dum Da Dum
  16. Two Unlimited - Faces
  17. Mr. President - M.M.
  18. Flame - Next Time I Promise
  19. Kim Sanders - Show Me
  20. Ice MC - Take Away
  21. Intermission - Piece Of My Heart
  22. Power People - Kiss The Beat
  23. Ice MC - Take Away The Color
  24. Apotheosis - Dance The Night Away
  25. Dr. DJ Cerla - Mi Bocca
  26. Ice MC - Take Away The Color
  27. Dr. DJ Cerla - Mi Bocca
  28. DJ Cartoons - Arriba Arriba
  29. Power People - Kiss The Beat
  30. Dynamic Base - Africa
  31. Sir Prize - Declaration, Dip Dip Da
  32. Bezugsband 38 - Bezugsband 38
  33. Two Boys - Don't You Know
  34. Gulliver - Open Your Eyes
  35. Bezugsband 38 - Bezugsband 38
  36. Outro
    Slow Motion Medley:
    Spieldauer 29'21
  37. Papa Winnie - You Are My Sunshine
  38. Buju Banton - Deportees
  39. SMW - Right Here
  40. Eric Singelton - Downtown Girl
  41. DJ Jazzy Jeff & Fresh Prince - Boom! Shake The Room
  42. Coldcut - Dreamer
  43. Sabina feat. Prince Steve - Someone Loves You Honey
  44. Randy Bush - Foreign Affair
  45. B.B. Nation - Easy Woman
  46. Gabrielle - Going Nowhere
  47. Mariah Carey - Dreamlover
    Bass Bumpers Dance Megamedley: Bass Bumpers Megamix (mixed by The A Team)
    Spieldauer 5'11
  48. Bass Bumpers - Runnin'
  49. Bass Bumpers - Move To The Rhythm
  50. Bass Bumpers - The Music's Got Me
    Dance Classics Megamix:
    Spieldauer 6'50
  51. Evelyn King - Love Come Down
  52. Melba Moore - Mind Up Tonight
  53. Melba Moore - Love's Comin' At Ya
  54. Sharon Brown - I'm Specialized In Love
  55. Patrice Rushen - Forget Me Nots
Cue-Informationen:

FILE "filename.mp3" MP3 
  TRACK 01 AUDIO
    INDEX 01 00:00:00
  TRACK 02 AUDIO
    INDEX 01 00:48:65
  TRACK 03 AUDIO
    INDEX 01 01:25:05
  TRACK 04 AUDIO
    INDEX 01 01:46:00
  TRACK 05 AUDIO
    INDEX 01 02:46:67
  TRACK 06 AUDIO
    INDEX 01 04:22:12
  TRACK 07 AUDIO
    INDEX 01 04:37:35
  TRACK 08 AUDIO
    INDEX 01 04:52:52
  TRACK 09 AUDIO
    INDEX 01 05:30:70
  TRACK 10 AUDIO
    INDEX 01 05:53:62
  TRACK 11 AUDIO
    INDEX 01 06:39:57
  TRACK 12 AUDIO
    INDEX 01 06:49:30
  TRACK 13 AUDIO
    INDEX 01 07:04:50
  TRACK 14 AUDIO
    INDEX 01 07:12:25
  TRACK 15 AUDIO
    INDEX 01 07:42:62
  TRACK 16 AUDIO
    INDEX 01 07:58:10
  TRACK 17 AUDIO
    INDEX 01 08:13:27
  TRACK 18 AUDIO
    INDEX 01 08:28:50
  TRACK 19 AUDIO
    INDEX 01 09:14:22
  TRACK 20 AUDIO
    INDEX 01 09:36:65
  TRACK 21 AUDIO
    INDEX 01 09:59:32
  TRACK 22 AUDIO
    INDEX 01 11:17:15
  TRACK 23 AUDIO
    INDEX 01 11:39:45
  TRACK 24 AUDIO
    INDEX 01 12:09:40
  TRACK 25 AUDIO
    INDEX 01 12:39:32
  TRACK 26 AUDIO
    INDEX 01 12:54:27
  TRACK 27 AUDIO
    INDEX 01 13:09:15
  TRACK 28 AUDIO
    INDEX 01 13:38:72
  TRACK 29 AUDIO
    INDEX 01 14:08:47
  TRACK 30 AUDIO
    INDEX 01 14:52:65
  TRACK 31 AUDIO
    INDEX 01 16:13:65
  TRACK 32 AUDIO
    INDEX 01 17:44:10
  TRACK 33 AUDIO
    INDEX 01 18:42:57
  TRACK 34 AUDIO
    INDEX 01 19:19:37
  TRACK 35 AUDIO
    INDEX 01 21:01:10
  TRACK 36 AUDIO
    INDEX 01 21:29:47
  TRACK 37 AUDIO
    INDEX 01 21:58:25
  TRACK 38 AUDIO
    INDEX 01 22:12:50
  TRACK 39 AUDIO
    INDEX 01 22:41:20
  TRACK 40 AUDIO
    INDEX 01 24:14:10
  TRACK 41 AUDIO
    INDEX 01 24:28:32
  TRACK 42 AUDIO
    INDEX 01 24:56:60
  TRACK 43 AUDIO
    INDEX 01 25:12:70
  TRACK 44 AUDIO
    INDEX 01 25:41:30
  TRACK 45 AUDIO
    INDEX 01 26:24:07
  TRACK 46 AUDIO
    INDEX 01 26:52:20
  TRACK 47 AUDIO
    INDEX 01 28:38:25
  TRACK 48 AUDIO
    INDEX 01 29:13:35
  TRACK 49 AUDIO
    INDEX 01 30:02:52
  TRACK 50 AUDIO
    INDEX 01 30:30:70
  TRACK 51 AUDIO
    INDEX 01 30:59:12
  TRACK 52 AUDIO
    INDEX 01 31:55:37
  TRACK 53 AUDIO
    INDEX 01 32:15:67
  TRACK 54 AUDIO
    INDEX 01 36:28:50
  TRACK 55 AUDIO
    INDEX 01 38:51:17
  TRACK 56 AUDIO
    INDEX 01 41:29:05
  TRACK 57 AUDIO
    INDEX 01 42:26:55
  TRACK 58 AUDIO
    INDEX 01 44:53:27
  TRACK 59 AUDIO
    INDEX 01 46:45:52
  TRACK 60 AUDIO
    INDEX 01 49:02:27
  TRACK 61 AUDIO
    INDEX 01 52:18:07
  TRACK 62 AUDIO
    INDEX 01 55:16:35
  TRACK 63 AUDIO
    INDEX 01 57:59:42
  TRACK 64 AUDIO
    INDEX 01 61:37:17
  TRACK 65 AUDIO
    INDEX 01 66:49:02
  TRACK 66 AUDIO
    INDEX 01 68:29:22
  TRACK 67 AUDIO
    INDEX 01 69:35:35
  TRACK 68 AUDIO
    INDEX 01 70:21:57
  TRACK 69 AUDIO
    INDEX 01 70:49:50
  TRACK 70 AUDIO
    INDEX 01 71:58:72
Wertung: (1)   Hinzugefügt: 23 December 2009
RSS Feed
RSS Feed
Sprache
Deutsch Englisch Französisch
Mixsuche
Suchbegriff
Genauer Wortlaut
Alle Worte (UND)
Ein Wort (ODER)
Statistik
14943 Mixe eingetragen
14627 Tracklisten
Newsletter
E-Mail
Anmelden
Abmelden
SPONSOREN