Mixkatalog
 Einloggen
Login
Passwort

Deep Dance 017 Hits: 23  

Deep Dance 017


Kurzbeschreibung:
Deep präsentiert Deep Dance Volume 17, Yearmix 1992. Gemixt von DJ Deep. Part II dieses Mixes befindet sich auf Deep Dance 18.
 
Crew/DJ: Deep Reihe: Deep Dance Serie
Stil: Pop Erscheinungsjahr: 1993
CDs: 1 Spielzeit: 70:03
Trackliste:
Cue-Informationen:

FILE "filename.mp3" MP3 
  TRACK 01 AUDIO
    INDEX 01 00:00:00
  TRACK 02 AUDIO
    INDEX 01 23:59:05
  TRACK 03 AUDIO
    INDEX 01 46:59:37
Wertung: (3)  
Hinzugefügt: 23 December 2009
RSS Feed
RSS Feed
Sprache
Deutsch Englisch Französisch
Mixsuche
Suchbegriff
Genauer Wortlaut
Alle Worte (UND)
Ein Wort (ODER)
Statistik
34555 Mixe eingetragen
32680 Tracklisten
Newsletter
E-Mail
Anmelden
Abmelden
SPONSOREN