Mixkatalog
 Einloggen
Login
Passwort

Deep Dance 016 Hits: 3  

Deep Dance 016


Kurzbeschreibung:
Deep Records präsentiert Deep Dance Volume 16. Gemixt von DJ Deep. Leider gibt es keine Tracklisten mehr dazu. Track 4 stammt von Music Factory Mastermix Issue 67. Remember stammt von Deep Dance 7 Vinyl und erschien als Walkin' & Talkin'.
 
Crew/DJ: Deep Records Reihe: DD Serie by Deep
Stil: Dance Erscheinungsjahr: 1992
Anzahl Tonträger: 1 Spielzeit: 74:32
Trackliste:
    Deep Dance Take 16:
    Spieldauer 30'40
  1. Intro
  2. Luther Vandross & Janet Jackson - The Best Things On Life Are Free
  3. Malaika - So Much Love
  4. Was (Not) Was - Shake Your Head
  5. Mr. Lee - Take Me Higher
  6. Ten City - My Peace Of Heaven
  7. Londonbeat - Lover You Send Me Colours
  8. Chase - Music Is My Life
  9. Leavis King - Year Of The Cat
  10. Undercover - Baker Street
  11. Kylie Minogue - What Kind Of Fool?
  12. Exclusive System feat. Max P. - Get On Down
  13. Gary Lowe - You Are A Danger
  14. Raúl Orellana feat. Jocelyn Brown - My Sun Will Get You
  15. ???
  16. Diss-Cuss - Pissed Apache
  17. 2 Static feat. Nasty Cat - Feel That Beat
  18. Deee-Lite - Thank You Everyday
  19. ???
  20. T N'T Party Zone - No Tengo Dinero
  21. ???
  22. 2 Unlimited - The Magic Friend
  23. Captain Hollywood Project - More & More
  24. T.H.K. - France (Sweet Extasy)
  25. Felix - Don't You Want Me
  26. Dr. Alban - It's My Life
  27. Shabba Ranks - Mr. Loverman
  28. Inner Circle - Sweat (A La La Long)
  29. Dr. Alban - One Love
  30. Outro
    Remember 1:
    Spieldauer 20'23
  31. Rose Royce - New Love
  32. Rock Steady Crew - The Rock Steady Crew (Hey You)
  33. Breack Machine - Street Dance
  34. Ray Parker Jr. - Ghostbusters
  35. Alisha - Baby Talk
  36. Culture Club - The War Song
  37. Animotion - I Engineer
  38. Herbie Hancock - Rockit
  39. D Train - Keep On
  40. Big Tony - Can't Get Enough
  41. Midnight Star - Operator
  42. ???
  43. Time Bandits - I Won't Steal Away
  44. Arrow - Hot Hot Hot
  45. Peter Brown - They Only Come Out At Night
  46. Shakatak - Watching You
  47. THS - Lady Shine (Shine On)
  48. The Michael Zager Band - Let's All Chant
  49. Moses - Our Revolution
  50. Deodato - S.O.S Fire In The Sky
  51. Kim Fields - He Loves Me He Loves Me Not
  52. Eurythmics - Sweet Dreams (Are Made of This)
  53. Secret Service - Flash In The Night
  54. Village People - Sex Over The Phone
  55. Diana Ross - Eaten Alive
    The History Of House:
    Spieldauer 10'51
  56. Keine Trackliste
    Bonustrack:
    Spieldauer 6'57
  57. Marvin Gaye - Sexual Healing (Erotic Mix)
    Spieldauer 5'40
  58. Hot Chocolate - Put Your Love In Me (Remix)
Cue-Informationen:

FILE "filename.mp3" MP3 
  TRACK 01 AUDIO
    INDEX 01 00:00:00
  TRACK 02 AUDIO
    INDEX 01 30:40:03
  TRACK 03 AUDIO
    INDEX 01 51:03:15
  TRACK 04 AUDIO
    INDEX 01 61:54:23
  TRACK 05 AUDIO
    INDEX 01 68:51:45
Wertung: (1)   Hinzugefügt: 23 December 2009
RSS Feed
RSS Feed
Sprache
Deutsch Englisch Französisch
Mixsuche
Suchbegriff
Genauer Wortlaut
Alle Worte (UND)
Ein Wort (ODER)
Statistik
14943 Mixe eingetragen
14627 Tracklisten
Newsletter
E-Mail
Anmelden
Abmelden
SPONSOREN