Mixkatalog
 Einloggen
Login
Passwort

Deep Dance 015 Hits: 373  

Deep Dance 015


Kurzbeschreibung:
Deep präsentiert Deep Dance Volume 15. Gemixt von DJ Deep. Leider gibt es keine Tracklisten mehr dazu.
 
Crew/DJ: Deep Reihe: DD Serie by Deep
Stil: Dance Erscheinungsjahr: 1992
Anzahl Tonträger: 1 Spielzeit: 74:07
Trackliste:
Cue-Informationen:

FILE "filename.mp3" MP3 
  TRACK 01 AUDIO
    INDEX 01 00:00:00
  TRACK 02 AUDIO
    INDEX 01 28:23:69
  TRACK 03 AUDIO
    INDEX 01 57:12:26
Wertung: (6)  
Hinzugefügt: 23 December 2009
RSS Feed
RSS Feed
Sprache
Deutsch Englisch Französisch
Mixsuche
Suchbegriff
Genauer Wortlaut
Alle Worte (UND)
Ein Wort (ODER)
Statistik
35708 Mixe eingetragen
33762 Tracklisten
Newsletter
E-Mail
Anmelden
Abmelden
SPONSOREN