Mixkatalog
 Einloggen
Login
Passwort

Deep Dance 010 - 012 Hits: 10  

Deep Dance 010 - 012


Kurzbeschreibung:
Deep Records präsentiert Deep Dance Volume 10, 11 und 12. Gemixt von DJ Deep. Leider gibt es keine Tracklisten mehr dazu. Den Deep Dance 12 gab es auf Vinyl als Deep IX.
 
Crew/DJ: Deep Records Reihe: DD Serie by Deep
Stil: Dance Erscheinungsjahr: 1991
Anzahl Tonträger: 1 Spielzeit: 74:27
Trackliste:
    Deep Dance Take 10:
    Spieldauer 22'44
  1. Intro (Badesalz)
  2. Orchestral Manoeuvres In The Dark - Pandora's Box
  3. Jomanda - Got A Love For You
  4. Heavy D & The Boys - Now That We Found Love
  5. Crystal Waters - Makin' Happy
  6. Timmy T - Paradise
  7. Francesco Zappala & DJ Professor - We Gotta Do It
  8. Utah Saints - What Can You Do For Me
  9. Paris Red - Good Friend
  10. Cartouche - Let The Music Take Control
  11. Brenda - Anymore
  12. Human Resource - Dominator
  13. Magic Marmalade - Let's Dance
  14. Deputies Of Love - Deputy Of Love
  15. Ex-Plain - Check Out
  16. M.B. - You Don't Get Stop
  17. Mister X - Round Here
  18. ???
  19. Time To Time - Tanzpirator
  20. L.A. Style - James Brown Is Dead
  21. The Hypnotist - The House Is Mine
  22. Rozalla - Everybody's Free (To Feel Good)
  23. Bryan Adams - I Do It For You (Everything I Do)
  24. Outro (Badesalz)
    Deep Dance Take 11:
    Spieldauer 23'24
  25. Intro
  26. MC Sar & The Real McCoy - Make A Move (Acapella)
  27. ???
  28. ???
  29. Living House - To Talk
  30. Mod N.4 - Judicta
  31. Kool & The Gang - Tonight
  32. Dancebee ‎- Party Move
  33. Vinegar ‎- Fungi Rhythm
  34. Salt 'N Pepa - Do You Want Me
  35. Crystal Waters - Gypsy Woman (La Da Dee)
  36. DJ Professor feat. Sharada House Gang - Life Is Life (Turbo "B")
  37. Kraftwerk - Die Roboter
  38. Culture Beat - No Deeper Meaning
  39. 2 Brothers On The 4th Floor - Can't Help Myself
  40. ???
  41. Joy & Joyce - Babe Babe
  42. System - Don't Stop
  43. Bass Bumpers - Get The Big Bass
  44. Anika feat. MC Miker G - Burn The House Down
  45. Kraftwerk - The Robots
  46. The KLF - Last Train To Trancentral
  47. S.S.R. - To Be House
  48. Chocolate - Everybody Salsa
  49. Attraction - I Got A Man
  50. LaTour - People Are Still Having Sex
  51. T99 - Anasthasia
  52. Outro
    Deep Dance Take 12:
    Spieldauer 23'27
  53. Intro
  54. Dream Warriors - Ludi
  55. Break (Movie Agatha Christie - Zehn kleine Negerlein)
  56. Time To Time - Zehn kleine Negerlein
  57. Ice MC - Happy Weekend
  58. Zener - Heart
  59. Greater Than One - House Fly
  60. Unity The Fresh Kid - Join The Party Line
  61. ???
  62. Wareband feat. Tad Robinson - Party Children
  63. Icy-D - Get Funky
  64. Xpansions - Move Your Body
  65. Raze - Bass Power
  66. Monie Love & Adeva - Ring My Bell
  67. PKA - Temperature Rising
  68. Megabeat - The Model
  69. Doug Lazy - H.O.U.S.E.
  70. DJ Pierre - Get On The Floor
  71. Secchi - Keep On Jammin'
  72. ???
  73. Bit Max - Dance (Just Dance For Me)
  74. ???
  75. Rozlyne Clarke ‎- Eddy Steady Go
  76. Rozlyne Clarke ‎- Gorgeous
    Bonustrack:
    Spieldauer 2'29
  77. Kate Yanai - Bacardi Feeling
    Spieldauer 2'21
  78. Unknown Artist - Premium Black Rum (Bacardi Rum)
Cue-Informationen:

FILE "filename.mp3" MP3
  TRACK 01 AUDIO
    INDEX 01 00:00:00
  TRACK 02 AUDIO
    INDEX 01 22:44:15
  TRACK 03 AUDIO
    INDEX 01 46:08:70
  TRACK 04 AUDIO
    INDEX 01 69:36:57
  TRACK 05 AUDIO
    INDEX 01 72:06:27
Wertung: (1)   Hinzugefügt: 23 December 2009
RSS Feed
RSS Feed
Sprache
Deutsch Englisch Französisch
Mixsuche
Suchbegriff
Genauer Wortlaut
Alle Worte (UND)
Ein Wort (ODER)
Statistik
14805 Mixe eingetragen
14492 Tracklisten
Newsletter
E-Mail
Anmelden
Abmelden
SPONSOREN