Mixkatalog
 Einloggen
Login
Passwort

Deep Dance 008½ Hits: 2  

Deep Dance 008½


Kurzbeschreibung:
Deep Records präsentiert Deep Dance Volume 8.5, Yearmix 1990. Gemixt von DJ Deep. Leider gibt es keine Tracklisten mehr dazu. Part 4 befindet sich auf dem Deep Dance 27.
 
Crew/DJ: Deep Records Reihe: DD Serie by Deep
Stil: Pop Erscheinungsjahr: 1994
Anzahl Tonträger: 1 Spielzeit: 73:26
Trackliste:
    Hit Mix 1990 Part 1:
    Spieldauer 23'02
  1. Intro
  2. PM Sampson & Double Key - We Love To Love
  3. Roxette - It Must Have Been Love
  4. Alannah Myles - Black Velvet
  5. Magna Carta - Hymn
  6. Double Trouble - Love Don't Live Here Anymore
  7. Michelle - Circle
  8. Enigma feat. Sandra - Sadness (Part 1)
  9. Maxi Priest - Close To You
  10. Beats International feat. Linday Layton - Dub Be Good To Me
  11. Ice MC - Scream
  12. Dr. Alban - No Coke
  13. Wilson Phillips - Hold On
  14. Madonna - Justify My Love
  15. Black Box - Fantasy
  16. Suzanne Vega - Tom's Diner
  17. Alannah Myles - Love Is
  18. UB40 - Kingston Town
  19. A-Ha - Crying In The Rain
  20. Matthias Reim - Verdammt, Ich Lieb Dich
  21. Dr. Alban - Hello Africa
  22. Bass-O-Matic - Fascinating Rhythm
  23. Lance Ellington - Pleasire & Pain
  24. Glenn Mederious & Bobby Brown - She Ain't Worth It
  25. Soul II Soul - A Dream's A Dream
  26. Snap! - Ooops Up
  27. Innocence - Natural Thing
  28. Innocence - Silent Voice
  29. Caron Wheeler - Livin' In The Light
  30. Partners In Kryme - Turtle Power
  31. Splash - I Need Rhythm
  32. BBG - Snappiness (Sweet Instrumental)
  33. Mantronix - Got To Have Your Love
  34. Chad Jackson - Hear The Drummer (Get Wicked)
  35. Tafuri - What Am I Gonna Do (About Your Love)
    Hit Mix 1990 Part 2:
    Spieldauer 24'29
  36. Sinhéad O'Connor - Nothing Compares 2 U
  37. MC Sar & The Real McCoy - It's On You
  38. FPI Project - Rich In Paradise (Going Back To My Roots)
  39. Atmosphere Introducing Mae B. - Atm-Oz-Fear
  40. Tribal House - Motherland
  41. Black Box - I Don't Know Anybody Else
  42. Madonna - Vogue
  43. Stax - Mary Had A Little Boy
  44. Betty Boo - Doin' The Do
  45. Adamski - The Space Jungle
  46. 2 In A Room - Do What You Want
  47. Off - La Casa Latina
  48. Kylie Minogue - Better The Devil You Know
  49. Sister J feat. MC Jack - Movin' Up & Down
  50. The Adventures Of Stevie V - Body Language
  51. Bizz Nizz - Don't Miss The Partyline
  52. Adamski feat. Seal - Killer
  53. Chyp-Notic - Nothing Compare 2 U
  54. Pet Shop Boys - So Hard
  55. Jam Jam - Everybody (Watcha Gonna Do)
  56. The Adventure Of Stevie V - Dirty Cash (Money Talks)
  57. FPI Project - Risky
  58. Natalie Cole - Wild Women Do
  59. Tricky Disco - Tricky Disco
  60. Clubland feat. Quartz's - Let's Get Busy (Pump It Up)
  61. Ice MC - Cinema
  62. ???
  63. Chocolate - Ritmo De La Noche
  64. Cartouche - Feel The Groove
  65. Lee Marrow - Movin'
  66. Fehlfarben - Ein Jahr (Es Geht Voran)
  67. Nelson - (Can't Live Without Your) Love & Affection
  68. Masterboy - Dance To The Beat
  69. Bad Boys Blue - How I Need You
  70. Kylie Minogue - Step Back In Time
  71. MC Miker G - Big House
  72. Club Control - House Machine
    Hit Mix 1990 Part 3:
    Spieldauer 25'54
  73. MC Hammer - Pray
  74. Off-Shore - I Can't Take The Power
  75. Double Dee - Found Love
  76. WestBam - The Roof Is On Fire
  77. D-Mob feat. Nuff Juice - Put Your Hands Together
  78. Mr. Lee - Get Busy
  79. Twenty 4 Seven - I Can't Stand It
  80. 2 Static feat. Nasty-Cat - Feel That Beat
  81. 49ers - Touch Me
  82. François Feldman - C'estToi Qui M'as Fait
  83. Polar Pop feat. MC Grzimek - Eisbär
  84. New Order - World In Motion
  85. Real McCoy - Don't Stop
  86. Technotronic - This Beat Is Technotronic
  87. Technotronic - Get Up! (Before The Night Is Over)
  88. Technotronic - Move This
  89. Culture Beat - I Like You
  90. B.G. The Prince Of Rap - Rap To The World
  91. Bizz Nizz - Get Into Trance
  92. Twenty 4 Seven - Are You Dreaming
  93. Deee-Lite - Groove Is In The Heart
  94. Lisa Stansfield - What Did I Do To You?
  95. Belinda Carlisle - La Luna
  96. Roxette - Dangerous
  97. Lonnie Gordon - Happenin' All Over Again
  98. Kim Appleby - Don't Worry
  99. New Kids On The Block - Step By Step
  100. Don Pablo's Animals - Venus
  101. Lee Marrow - Do You Want Me
  102. Guru Josh - Infinity
  103. DJ P. Project - Down On Me
  104. Pierre Feroldi feat. Linda Ray - Movin Now
  105. Nick Kamen - I Promised Myself
  106. MC Miker G & DJ Sven - Show'm The Bass
  107. Bombalorina - Itsy Bitsy Teenie Weenie Yellow Polka Dot Bikini
  108. Ecstasy - This Is My House
  109. Dusty Springfield - I Private
  110. MC Hammer - U Can't Touch This
Cue-Informationen:

FILE "filename.mp3" MP3
  TRACK 01 AUDIO
    INDEX 01 00:00:00
  TRACK 02 AUDIO
    INDEX 01 23:02:22
  TRACK 03 AUDIO
    INDEX 01 47:31:58
Wertung: (1)   Hinzugefügt: 23 December 2009
RSS Feed
RSS Feed
Sprache
Deutsch Englisch Französisch
Mixsuche
Suchbegriff
Genauer Wortlaut
Alle Worte (UND)
Ein Wort (ODER)
Statistik
14943 Mixe eingetragen
14627 Tracklisten
Newsletter
E-Mail
Anmelden
Abmelden
SPONSOREN