Mixkatalog
 Einloggen
Login
Passwort

Deep Dance 005 - 007 Hits: 4  

Deep Dance 005 - 007


Kurzbeschreibung:
Deep Records präsentiert Deep Dance Volume 5, 6 und 7. Gemixt von DJ Deep. Leider gibt es keine Tracklisten mehr dazu.
 
Crew/DJ: Deep Records Reihe: DD Serie by Deep
Stil: Dance Erscheinungsjahr: 1990
Anzahl Tonträger: 1 Spielzeit: 68:56
Trackliste:
    Deep Dance Take 5:
    Spieldauer 23'37
  1. Madonna - Vogue
  2. Jungle Brothers - What You Waitin' 4?
  3. JT Company - Don't Deal With Us
  4. The House Crew - All We Wanna Do Is Dance
  5. Black Box - I Don't Know Anybody Else
  6. MC Sar & Real McCoy - It's On You
  7. Atmosphere Introducing Mae B. - Atm-Oz-Fear
  8. Red Fox - Waste Your Time
  9. 49ers - Girl To Girl
  10. 49ers - Don't You Love Me
  11. Bizz Nizz - Don't Miss The Partyline
  12. E-Zee Possee feat. Dr. Mouthquake - Love On Love
  13. MC Magic Max - You Make Me Funky
  14. Tribal House - Motherland (Africa Dub)
  15. ???
  16. Ice MC - Cinema
  17. D. Mob With Cathy Dennis - That's The Way Of The World
  18. FPI Project - Rich In Paradise
  19. Masterboy - Dance To The Beat
  20. Simon Harris Starring Daddy Freddy - Ragga House (All Night Long)
  21. Sydney Fresh - The Party Just Began
  22. Twenty 4 Seven feat. MC Fixx It - I Can't Stand It
  23. Lee Marrow - Do You Want Me
  24. Technotronic - Move This
  25. MC Miker G. - Show'm The Bass
  26. ???
    Deep Dance Take 6:
    Spieldauer 22'55
  27. Intro (Bernhard und Bianca)
  28. The Tutti Frutti-Girls - Cin Cin
  29. Donna Robbins - Treat Me Right
  30. Adventures Of Stevie V. - Dirty Cash (Money Talks)
  31. Black Box - Everybody Everybody
  32. WestBam - The Roof Is On Fire
  33. The House Crew - All We Wanna Do Is Dance (Sample)
  34. Hithouse - I've Been Waiting For Your Love
  35. Lee Marrow - Pain
  36. Guru Josh - Whose Law (Is It Anyway)?
  37. Anita Ward - Ring My Bell (1990 Mega Remix)
  38. D. Pressure - Let's Jam The House
  39. Club Control - House Machine
  40. Maude - Get On The Move
  41. MC Fixx It - Let's Move
  42. Tony Scott - Gangster Boogie
  43. New Kids On The Block - Step By Step
  44. Bass Bumpers - Can't Stop Dancing
  45. ???
    Deep Dance Take 7:
    Spieldauer 22'14
  46. Intro
  47. Sting - Englishman In New York (Ben Liebrand Remix)
  48. Chill Rob G. - Court Is Now In Session
  49. Innocence - Silent Voice
  50. DNA feat. Suzanna Vega - Tom's Diner
  51. Timmy Thomas - Why Can't We Live Together
  52. Lonnie Gordon - Beyond Your Wildest Dreams
  53. Snap - Cult Of Snap!
  54. Break
  55. Yankees - I Can't Feel It
  56. 2 Static feat. Nasty Cat - Feel That Beat
  57. Clubland - Let's Get Busy
  58. 2 In A Room - Wiggle It
  59. Rob N Raz feat. Leila K. - Just Tell Me
  60. French Connection - French Connection
  61. Stax - Mary Had A Little Boy
  62. Jocelyn Brown - Love's Gonna Get You (Dance Mix)
  63. Sync' Tronic - What Sticks Together
  64. ???
  65. ???
  66. Hardcore Uproar - Together
  67. GTO - Pure (Energy)
  68. Robotiko Rejekto - Injection (Rejekto 2)
  69. Tricky Disco - Tricky Disco
  70. Plaza - O-Oh
  71. Eurythmics - Sweet Dreams (Nightmare Mix)
  72. Bombalurina - Itsy Bitsy Teeny Weeny Yellow Polka Dot Bikini
Cue-Informationen:

FILE "filename.mp3" MP3 
  TRACK 01 AUDIO
    INDEX 01 00:00:00
  TRACK 02 AUDIO
    INDEX 01 23:41:50
  TRACK 03 AUDIO
    INDEX 01 46:40:60
Wertung: (1)   Hinzugefügt: 23 December 2009
RSS Feed
RSS Feed
Sprache
Deutsch Englisch Französisch
Mixsuche
Suchbegriff
Genauer Wortlaut
Alle Worte (UND)
Ein Wort (ODER)
Statistik
14805 Mixe eingetragen
14492 Tracklisten
Newsletter
E-Mail
Anmelden
Abmelden
SPONSOREN