Mixkatalog
 Einloggen
Login
Passwort

Deep Fox 03 Hits: 276  

Deep Fox 03


Kurzbeschreibung:
Deep präsentiert den Deep Fox Volume 3. Gemixt von DJ Deep.
 
Crew/DJ: Deep Reihe: Deep Fox
Stil: Fox Erscheinungsjahr: 1996
CDs: 1 Spielzeit: 74:01
Trackliste:
Cue-Informationen:

FILE "filename.mp3" MP3
  TRACK 01 AUDIO
    INDEX 01 00:00:00
  TRACK 02 AUDIO
    INDEX 01 29:07:15
  TRACK 03 AUDIO
    INDEX 01 38:12:13
  TRACK 04 AUDIO
    INDEX 01 43:38:43
  TRACK 05 AUDIO
    INDEX 01 47:44:16
  TRACK 06 AUDIO
    INDEX 01 53:39:17
  TRACK 07 AUDIO
    INDEX 01 57:32:39
  TRACK 08 AUDIO
    INDEX 01 63:43:15
  TRACK 09 AUDIO
    INDEX 01 69:50:26
Wertung: (87)  
Hinzugefügt: 23 December 2009
RSS Feed
RSS Feed
Sprache
Deutsch Englisch Französisch
Mixsuche
Suchbegriff
Genauer Wortlaut
Alle Worte (UND)
Ein Wort (ODER)
Statistik
32424 Mixe eingetragen
30806 Tracklisten
Newsletter
E-Mail
Anmelden
Abmelden
SPONSOREN