Mixkatalog
SPONSOREN
 Einloggen
Login
Passwort

The Yearmix Show 2011 Hits: 125  

The Yearmix Show 2011


Kurzbeschreibung:
Deep präsentiert The Yearmix Show 2011, gemixt von DJ Deep. Mix erschien auch als Time Travel 2011.
 
Crew/DJ: Deep Reihe: Deep Yearmix
Stil: Dance Erscheinungsjahr: 2012
Anzahl Tonträger: 1 Spielzeit: 79:01
Trackliste:
Cue-Informationen:

FILE "filename.mp3" MP3
  TRACK 01 AUDIO
    INDEX 01 00:00:00
  TRACK 02 AUDIO
    INDEX 01 01:17:41
  TRACK 03 AUDIO
    INDEX 01 05:47:23
  TRACK 04 AUDIO
    INDEX 01 12:37:65
  TRACK 05 AUDIO
    INDEX 01 19:42:57
  TRACK 06 AUDIO
    INDEX 01 26:15:51
  TRACK 07 AUDIO
    INDEX 01 32:30:67
  TRACK 08 AUDIO
    INDEX 01 38:35:37
  TRACK 09 AUDIO
    INDEX 01 45:25:45
  TRACK 10 AUDIO
    INDEX 01 51:49:72
  TRACK 11 AUDIO
    INDEX 01 57:42:30
  TRACK 12 AUDIO
    INDEX 01 63:08:41
  TRACK 13 AUDIO
    INDEX 01 70:16:65
Wertung: (6)  
Hinzugefügt: 9 February 2012

 Kommentare
Von:
Bunitz
Am:
9 February 2012
Danke Deep! Mit der beste Jahresmix in 2011
RSS Feed
RSS Feed
Sprache
Deutsch Englisch Französisch
Mixsuche
Suchbegriff
Genauer Wortlaut
Alle Worte (UND)
Ein Wort (ODER)
Statistik
35809 Mixe eingetragen
33873 Tracklisten
Newsletter
E-Mail
Anmelden
Abmelden
SPONSOREN