Mixkatalog
 Einloggen
Login
Passwort

Beat-Mix 30 Hits: 2  

Beat-Mix 30


Kurzbeschreibung:
Ruhrpott Records präsentiert Beat Mix Volume 30, ...And The Beat Goes On! Gemixt von The King Of Mix.
 
Crew/DJ: Ruhrpott Records Reihe: Beat-Mix
Stil: Dance Erscheinungsjahr: 2011
Anzahl Tonträger: 1 Spielzeit: 79:43
Trackliste:
    Section Dance:
  1. Intro
  2. Movetown feat. Nana - Lonely
  3. Hardcharger - Once Upon A Time
  4. Tierra - My Greatest Fear
  5. Hayley Scott - First Beat Of My Heart
  6. Milk Inc. - Land Of The Living 2011
  7. Punkrockerz - Shine 4 U
  8. Cascada - Au Revoir
  9. Michael Newton - Wow
  10. Alex M - Porque No
  11. Bodybangers - One More Time
  12. 2 Raverz - Into My World
  13. Darius & Finlay - Generation Fascination
  14. Jens O. - Hold It Against Me
  15. Rocco & Bass-T - Holy Ground
  16. The Circus - Start It Now
  17. Tosh & Ventura - No More
  18. Clubhunter - Super Lover
  19. Master Blaster - Back To The Sunshine
  20. E Partment - Hang On
  21. Clubstone - Leaving You
  22. Gabry Ponte - Skyride
  23. Duck Sauce - Big Bad Wolf
  24. Michael Mind Project - Rio De Janeiro
  25. Bryce - Nothing Can Hold Us Back
  26. RIO - Turn This Club Around
  27. Guenta - Baby Let's Get Loud
  28. Darius & Finlay - Here Comes The Night
  29. Inna - Club Rocker
  30. Azuro - Toca Me
  31. Jaykay - What The Girls Like
    Section Italo:
  32. Italobrothers - Boom
  33. Clubhunter - Hands Up
  34. DJ Hyo - Burning Up
  35. TSS Project - Se Feliz
  36. DJ Hyo - Buona Sera
  37. Carmixer - Musica Magica
  38. Domenico Pepe - 2 Mio Angelo Blu
  39. Italotunez - Sea
  40. Discoduck - Lie To Me
  41. DJ Pijalis - One Night Was Enough
  42. Italoproducerz - Zemra Ime
  43. Alex Teddy - Essence Of Summer
  44. Sheby - Come To Me
    Eurodance Class-X: 'Ken Laszlo'
  45. Intro
  46. Ken Laszlo - Maybe A Lonely Night
  47. Ken Laszlo - For Da Day
  48. Ken Laszlo - Whatever Love
  49. Ken Laszlo - Love Things
  50. Ken Laszlo - When I Fall In Love
  51. Ken Laszlo - Summer Nights
  52. Ken Laszlo - What A Lonely Night
  53. Ken Laszlo - Video Killed The Radio Star
  54. Ken Laszlo - EMail Box
  55. Ken Laszlo - Tonight
  56. Ken Laszlo - Everytime
Cue-Informationen:

FILE "filename.mp3" MP3
  TRACK 01 AUDIO
    INDEX 01 00:00:00
  TRACK 02 AUDIO
    INDEX 01 01:14:62
  TRACK 03 AUDIO
    INDEX 01 41:56:12
  TRACK 04 AUDIO
    INDEX 01 62:29:16
Wertung: (6)  
Hinzugefügt: 20 December 2011
RSS Feed
RSS Feed
Sprache
Deutsch Englisch Französisch
Mixsuche
Suchbegriff
Genauer Wortlaut
Alle Worte (UND)
Ein Wort (ODER)
Statistik
14711 Mixe eingetragen
14399 Tracklisten
Newsletter
E-Mail
Anmelden
Abmelden
SPONSOREN