Mixkatalog
 Einloggen
Login
Passwort

Space Zone 07 Hits: 1  

Space Zone 07


Kurzbeschreibung:
Magic (MPA) präsentiert SpaceZone Volume 7, gemixt von Andrew Scott.
 
Crew/DJ: MPA Records Reihe: Space Zone
Stil: Freestyle Erscheinungsjahr: 1997
Anzahl Tonträger: 1 Spielzeit: 73:29
Trackliste:
    Freestyle Mix:
  1. Opening
  2. Katalina - Eternity
  3. Louisa H. - Fantasy Boy
  4. Angelique - I Want Your Love
  5. Gina Dee - Limelight
  6. Jonathan Blaque - Think
  7. Free System - I Need You
  8. Rock Force - Let′s Do It Again
  9. Rock Force - I Can′t Thide
  10. Cynthia Austin - Work That Body
    The Remix:
  11. Paris Red feat. Nana, Passion & Outkast - Love Hurts
    Gangsta Mix (Dopie Part):
  12. Three 6 Mafia - Tear Da Club Up
  13. N2Deep - California Lifestyles
  14. Ironic - Murder Makes Mo Mail
  15. 11/5 - Keep It Real
  16. The Graveyards - Dream Nuit
  17. The F.A.′s - Gonna Be Alright
  18. White Dee - Give It Up To The G′s
  19. 3XCrazy - Keep It On The Real
    Miami Bass Mix:
  20. DJ Smurf - Drop It
  21. Bassxxx - Drop It Down
  22. DJ Trans - Roll Dem Hips
  23. Stylz - Swing Low
  24. Da Real One - U Like Pina Colada
  25. DJ Trans - When I Hear Music
  26. G.A. Girlz - Shake It
    G-Funk Mix:
  27. Opening
  28. Black Sugar Magic - I Wanna Know
  29. Big Syke - On My Way Out
  30. Xclue - Mama
  31. 2 Secure - I Gave Up My Lips
  32. Ray4 - Let It Go
  33. DFC - Listen
  34. Soundcage - Way′s Of Life
  35. Squirrel - Let Me See You Squirrel
  36. Kaleef - Case For The Defense
  37. Prophet G. - Ghettogame
  38. Puff Daddy - I′ll Be Missing You
    Freestyle Bonustrack:
  39. Rockell - In A Dream (Original Maxi Version)
Cue-Informationen:

FILE "filename.mp3" MP3
  TRACK 01 AUDIO
    INDEX 01 00:00:00
  TRACK 02 AUDIO
    INDEX 01 00:40:48
  TRACK 03 AUDIO
    INDEX 01 02:28:68
  TRACK 04 AUDIO
    INDEX 01 05:25:23
  TRACK 05 AUDIO
    INDEX 01 06:26:16
  TRACK 06 AUDIO
    INDEX 01 08:46:34
  TRACK 07 AUDIO
    INDEX 01 10:23:56
  TRACK 08 AUDIO
    INDEX 01 12:38:20
  TRACK 09 AUDIO
    INDEX 01 14:02:59
  TRACK 10 AUDIO
    INDEX 01 15:52:12
  TRACK 11 AUDIO
    INDEX 01 17:39:62
  TRACK 12 AUDIO
    INDEX 01 23:27:01
  TRACK 13 AUDIO
    INDEX 01 24:58:15
  TRACK 14 AUDIO
    INDEX 01 26:14:33
  TRACK 15 AUDIO
    INDEX 01 28:06:61
  TRACK 16 AUDIO
    INDEX 01 29:35:23
  TRACK 17 AUDIO
    INDEX 01 31:04:07
  TRACK 18 AUDIO
    INDEX 01 32:34:41
  TRACK 19 AUDIO
    INDEX 01 33:51:41
  TRACK 20 AUDIO
    INDEX 01 37:16:04
  TRACK 21 AUDIO
    INDEX 01 38:39:38
  TRACK 22 AUDIO
    INDEX 01 40:07:58
  TRACK 23 AUDIO
    INDEX 01 42:07:19
  TRACK 24 AUDIO
    INDEX 01 44:06:04
  TRACK 25 AUDIO
    INDEX 01 45:48:00
  TRACK 26 AUDIO
    INDEX 01 46:17:44
  TRACK 27 AUDIO
    INDEX 01 47:56:28
  TRACK 28 AUDIO
    INDEX 01 49:07:24
  TRACK 29 AUDIO
    INDEX 01 51:02:03
  TRACK 30 AUDIO
    INDEX 01 52:52:56
  TRACK 31 AUDIO
    INDEX 01 55:15:26
  TRACK 32 AUDIO
    INDEX 01 57:41:74
  TRACK 33 AUDIO
    INDEX 01 58:41:25
  TRACK 34 AUDIO
    INDEX 01 60:11:55
  TRACK 35 AUDIO
    INDEX 01 61:28:40
  TRACK 36 AUDIO
    INDEX 01 62:25:41
  TRACK 37 AUDIO
    INDEX 01 64:22:64
  TRACK 38 AUDIO
    INDEX 01 65:48:00
  TRACK 39 AUDIO
    INDEX 01 69:15:54
Wertung: (1)  
Hinzugefügt: 20 October 2011
RSS Feed
RSS Feed
Sprache
Deutsch Englisch Französisch
Mixsuche
Suchbegriff
Genauer Wortlaut
Alle Worte (UND)
Ein Wort (ODER)
Statistik
14711 Mixe eingetragen
14399 Tracklisten
Newsletter
E-Mail
Anmelden
Abmelden
SPONSOREN