Mixkatalog
SPONSOREN
 Einloggen
Login
Passwort

Space Zone 06 Hits: 275  

Space Zone 06


Kurzbeschreibung:
Magic (MPA) präsentiert SpaceZone Volume 6, gemixt von Andrew Scott.
 
Crew/DJ: Magic (MPA) Reihe: Space Zone
Stil: Dance Erscheinungsjahr: 1997
Anzahl Tonträger: 1 Spielzeit: 74:40
Trackliste:
Cue-Informationen:

FILE "filename.mp3" MP3
  TRACK 01 AUDIO
    INDEX 00 00:00:00
  TRACK 02 AUDIO
    INDEX 01 00:34:59
  TRACK 03 AUDIO
    INDEX 01 01:14:55
  TRACK 04 AUDIO
    INDEX 01 05:46:38
  TRACK 05 AUDIO
    INDEX 01 06:03:55
  TRACK 06 AUDIO
    INDEX 01 07:20:58
  TRACK 07 AUDIO
    INDEX 01 09:47:52
  TRACK 08 AUDIO
    INDEX 01 10:50:74
  TRACK 09 AUDIO
    INDEX 01 12:33:71
  TRACK 10 AUDIO
    INDEX 01 14:38:22
  TRACK 11 AUDIO
    INDEX 01 16:23:19
  TRACK 12 AUDIO
    INDEX 01 18:23:07
  TRACK 13 AUDIO
    INDEX 01 20:18:61
  TRACK 14 AUDIO
    INDEX 01 21:45:22
  TRACK 15 AUDIO
    INDEX 01 22:50:13
  TRACK 16 AUDIO
    INDEX 01 24:35:24
  TRACK 17 AUDIO
    INDEX 01 26:27:12
  TRACK 18 AUDIO
    INDEX 01 28:12:48
  TRACK 19 AUDIO
    INDEX 01 30:06:67
  TRACK 20 AUDIO
    INDEX 01 31:51:03
  TRACK 21 AUDIO
    INDEX 01 33:08:71
  TRACK 22 AUDIO
    INDEX 01 34:21:26
  TRACK 23 AUDIO
    INDEX 01 35:32:17
  TRACK 24 AUDIO
    INDEX 01 37:06:53
  TRACK 25 AUDIO
    INDEX 01 38:17:56
  TRACK 26 AUDIO
    INDEX 01 40:08:36
  TRACK 27 AUDIO
    INDEX 01 41:57:52
  TRACK 28 AUDIO
    INDEX 01 44:09:14
  TRACK 29 AUDIO
    INDEX 01 45:28:02
  TRACK 30 AUDIO
    INDEX 01 47:22:67
  TRACK 31 AUDIO
    INDEX 01 49:18:41
  TRACK 32 AUDIO
    INDEX 01 50:49:16
  TRACK 33 AUDIO
    INDEX 01 52:50:37
  TRACK 34 AUDIO
    INDEX 01 55:03:74
  TRACK 35 AUDIO
    INDEX 01 56:10:73
  TRACK 36 AUDIO
    INDEX 01 57:41:45
  TRACK 37 AUDIO
    INDEX 01 59:59:62
  TRACK 38 AUDIO
    INDEX 01 61:23:46
  TRACK 39 AUDIO
    INDEX 01 63:38:12
  TRACK 40 AUDIO
    INDEX 01 65:20:50
  TRACK 41 AUDIO
    INDEX 01 67:12:11
  TRACK 42 AUDIO
    INDEX 01 68:44:10
  TRACK 43 AUDIO
    INDEX 01 70:35:60
Wertung: (1)  
Hinzugefügt: 20 October 2011
RSS Feed
RSS Feed
Sprache
Deutsch Englisch Französisch
Mixsuche
Suchbegriff
Genauer Wortlaut
Alle Worte (UND)
Ein Wort (ODER)
Statistik
35809 Mixe eingetragen
33873 Tracklisten
Newsletter
E-Mail
Anmelden
Abmelden
SPONSOREN