Mixkatalog
SPONSOREN
 Einloggen
Login
Passwort

Space Zone 01 Hits: 46  

Space Zone 01


Kurzbeschreibung:
Magic (MPA) präsentiert SpaceZone Volume 1, gemixt von Andrew Scott.
 
Crew/DJ: Magic (MPA) Reihe: Space Zone
Stil: Freestyle Erscheinungsjahr: 1996
Anzahl Tonträger: 1 Spielzeit: 69:06
Trackliste:
Cue-Informationen:

FILE "filename.mp3" MP3
  TRACK 01 AUDIO
    INDEX 01 00:00:00
  TRACK 02 AUDIO
    INDEX 01 08:59:27
  TRACK 03 AUDIO
    INDEX 01 12:31:28
  TRACK 04 AUDIO
    INDEX 01 16:02:47
  TRACK 05 AUDIO
    INDEX 01 19:48:07
  TRACK 06 AUDIO
    INDEX 01 25:12:35
  TRACK 07 AUDIO
    INDEX 01 29:16:65
  TRACK 08 AUDIO
    INDEX 01 33:52:63
  TRACK 09 AUDIO
    INDEX 01 38:40:08
  TRACK 10 AUDIO
    INDEX 01 43:19:44
  TRACK 11 AUDIO
    INDEX 01 49:19:52
  TRACK 12 AUDIO
    INDEX 01 53:45:42
  TRACK 13 AUDIO
    INDEX 01 59:25:19
  TRACK 14 AUDIO
    INDEX 01 63:27:61
Wertung: (1)  
Hinzugefügt: 20 October 2011
RSS Feed
RSS Feed
Sprache
Deutsch Englisch Französisch
Mixsuche
Suchbegriff
Genauer Wortlaut
Alle Worte (UND)
Ein Wort (ODER)
Statistik
35809 Mixe eingetragen
33873 Tracklisten
Newsletter
E-Mail
Anmelden
Abmelden
SPONSOREN