Mixkatalog
 Einloggen
Login
Passwort

Beat-Mix 02 Hits: 2  

Beat-Mix 02


Kurzbeschreibung:
Ruhrpott Records präsentiert Beat-Mix Volume 2. Grüße aus dem Pott.
 
Crew/DJ: Ruhrpott Records Reihe: Beat-Mix
Stil: Dance Erscheinungsjahr: 2003
Anzahl Tonträger: 1 Spielzeit: 77:07
Trackliste:
    Dance:
    Spieldauer 29'01
  1. Intermission - Piece Of My Heart
  2. Culture Beat - Mr. Vain 2003
  3. Dance Nation - You Take Me Away
  4. Pulsedriver - Galaxy
  5. Paul van Dyk - Nothing But You
  6. DJ Boozywoozy - I Wanna Fly
  7. Lexy & K-Paul - Girls Get It Firat
  8. Groove Coverage - The End
  9. Starsplash - Endless Fantasy
  10. Bad Boyz DJ Team - Rock The Mic
  11. Beam vs. Cyrus - U Can't Touch This
  12. DJ Murphy Brown - Axel F.
  13. Kate Ryan - Libertine
  14. Fragma - Man In The Moon
  15. Svenson & Gielen - Beachbreeze
  16. Lichtenfels - Sounds Like A Melody
  17. Nightwatchers - Darkside Of My Dreams
  18. Martillo Vago - Pour Que No
  19. DJ Miguel Serna - Think In Black
  20. Jan Wayne - Love Is A Soldier
  21. DJ Dave - Killing My Softly
  22. Redwing - My Heart Is Calling
  23. Klubbheads - Somebody's Scream
  24. Lovestern Galaktika - Superstar
  25. Little Witches - Late 2 Nite
  26. Decay - Didn't I Know
  27. Bad Boyz DJ Team - For Your Love
  28. Kyau vs. Albert - Velvet Morning
  29. Clubformers - Rock Da Jam
  30. 4 Strings - Let It Rain
    Hardbeat Mayday Special:
    Spieldauer 20'44
  31. Thomas Trouble - Edge Of Sanity
  32. Members Of Mayday - Troopa Of Tomorrow
  33. Sensation - The Anthem
  34. Warp Brothers - Going Insane
  35. John Starlight - Blood Angels
  36. Asys - From Past 2 Phuture
  37. Derb - This Is Derb
  38. DJ Digress - The Frequency
  39. Benny Benassi - Satisfaction
  40. Paradox - Bass Pt. 2
  41. Shokk - My Madness Say's...
  42. The Matrix - Protect The Innocent
  43. Blank & Jones - Closer To The Edge
  44. Kaiser Souzai - Wild Side
  45. Lambda - Hold On Tight
  46. Thomas Trouble - Edge Of Sanity
  47. Hardy Hard - Silver Surfer 2003
  48. Shadow feat. Mel - Eternity
    Slow:
    Spieldauer 27'23
  49. Eminem - Sing For The Moment
  50. Blue - U Make Me Wanna
  51. Shania Twain - Ka Ching
  52. Jennifer Lopez - All I Have
  53. Mariah Carey - Boy
  54. Robbie Williams - Come Undone
  55. Kool Savas - Der Beste Tag Meines Lebens
  56. Ja Rule - Mesmeriza
  57. 50 Cent - In Da Club
  58. Sarah Connor - He's Unbelievable
  59. Whitney Houston / Nelly - One Of Those Days
  60. Oli P. - Alles Ändert Sich
  61. NAS - I Can
  62. B2K feat. P. Diddy - Bump Bump Bump
  63. Trooper Da Don / Vanessa - Ride Or Die
  64. Bro'Sis - Oh No
  65. Mellow Mark - Weltweit
  66. Moqui Marbies - Kleine Melodie
  67. Before Four - Feel Free To Say No
  68. Madonna - American Life
  69. Lil Kim - The Jump Off
  70. Busta Flex - Qu'est-Ce Tu Fous Cette Nuit
  71. Simply Red - Sunrise
Cue-Informationen:

FILE "filename.mp3" MP3
  TRACK 01 AUDIO
    INDEX 01 00:00:00
  TRACK 02 AUDIO
    INDEX 01 28:57:72
  TRACK 03 AUDIO
    INDEX 01 49:45:08
Wertung: (1)   Hinzugefügt: 28 November 2009
Mixsuche
Suchbegriff
Genauer Wortlaut
Alle Worte (UND)
Ein Wort (ODER)
SPONSOREN