Mixkatalog
 Einloggen
Login
Passwort

Beat-Mix 02 Hits: 1  

Beat-Mix 02


Kurzbeschreibung:
Ruhrpott Records präsentiert Beat-Mix Volume 2. Grüߟe aus dem Pott.
 
Crew/DJ: Ruhrpott Records Reihe: Beat-Mix
Stil: Dance Erscheinungsjahr: 2003
CDs: 1 Spielzeit: 77:07
Trackliste:
Cue-Informationen:

FILE "filename.mp3" MP3
  TRACK 01 AUDIO
    INDEX 01 00:00:00
  TRACK 02 AUDIO
    INDEX 01 28:57:72
  TRACK 03 AUDIO
    INDEX 01 49:45:08
Wertung: (11)  
Hinzugefügt: 28 November 2009
RSS Feed
RSS Feed
Sprache
Deutsch Englisch Französisch
Mixsuche
Suchbegriff
Genauer Wortlaut
Alle Worte (UND)
Ein Wort (ODER)
Statistik
29581 Mixe eingetragen
28170 Tracklisten
Newsletter
E-Mail
Anmelden
Abmelden
SPONSOREN