Mixkatalog
 Einloggen
Login
Passwort

Deep Dance 135 Hits: 2  

Deep Dance 135


Kurzbeschreibung:
Deep Records präsentiert den Deep Dance Episode 135 - Deep Wars. Der House Part ist im Original DJ Falkon "Falkonmix 16".
 
Crew/DJ: Deep Records Reihe: DD Serie Erstauflage
Stil: Dance Erscheinungsjahr: 2011
Anzahl Tonträger: 1 Spielzeit: 76:59
Trackliste:
    Deep Dance Take 135:
    Spieldauer 30'02
  1. Intro
  2. Ti-Mo - 2 The Back
  3. Alex M. vs. Marc van Damme - Par Sue No
  4. J. Karen feat. Nils Collas - Take Me To The Limit
  5. Discomakers feat. Jessica Jean - Addiction
  6. Sunset Project meets Tomtrav - Nessaja
  7. Sam Walkertone feat. L. Lilneaux - To Nowhere
  8. Brooklyn Bounce - The Music's Got Me
  9. Jens O. feat. Ti-Mo - Hold It Against Me
  10. Rocco & Bass-T vs. Redtzer - Holy Ground
  11. Jan Wayne - Bring Me To Life
  12. Escon - Angel Eyes
  13. Davis Redfield feat. Jay Cless - Sun Drops Down
  14. Giorno - I Clear The Area
  15. Ron-Bon-Beat Project - Hello
  16. 89ers - Go Go Go Go!
  17. Topmodelz - My Paradise
  18. LMFAO feat. L. Bennett - Party Rock Anthem
  19. Kindervater feat. Julia Goldstern - Don't Stop
  20. Scotty - Sundown (Incomplete)
  21. Master Blaster - Back To The Sunshine
  22. Lucenzo feat. Don Oman - Danza Kuduro
    Deep House:
    Spieldauer 26'17
  23. Intro
  24. Valentin Florian & Syskey - Stuck In The Music (Ades Vapor Remix)
  25. Sak Noel - Loca People (La Gente Esta Muy Loca 2010)
  26. Albert Kick feat. Jason Rene - Camper (Club Mix)
  27. RLP & Barbara Tucker - R.E.S.P.E.C.T
  28. Robyn - Indestructible (A-Trak Remix)
  29. Black Eyed Peas - Disco Club
  30. Tag Team - Whoomp! (There It Is) (Housecat Mix)
  31. Mister Jam feat. Wanessa - Mister Jam (Dazoo At Night Remix)
  32. Otzy - One Day Siberia
  33. Tony Dark Eyes feat. Chela Rivas - Bailando (Joe Parra Unreleased Mix)
  34. Mach1 pres. Audio Thieves - Is This Love (Heatloverz Remix)
  35. Denzal Park - Burn
  36. Afrojack - Louder Than Words (Funk D Bootleg)
  37. J.Lourenzo feat. Big Steve - In My Eyes
  38. Bruno Mars feat. Varski - Grenade (Dan Clare Remix)
  39. Bruno Mars - Grenade (Curis Remix)
  40. Rivero - Feel The Sax (DJs From Mars Remix)
  41. Dr. Kucho - The Rave (Tocadisco Remix)
  42. DJ Wady - Pata Negra
  43. Alex Kenji - What's Up
  44. Milk & Sugar vs. Vaya Con Dios - Hey (Nah Neh Nah) (Lissat & Voltaxx Remix)
  45. Willow Smith - Whip My Hair
  46. Funky Junction vs. Splashfunk feat. 2 In A Room - Shake Dat Booty
  47. DJ Dago - Play My Shit
  48. Disco Superstars - I'm So Hot (Club Mix)
  49. Weez - Number 1
  50. Alvaro vs. Martin Solveig & Dragonette - Make It Hello
  51. Martin Solveig - Hello (Rave Radio Re-Shake)
  52. Knas vs. I Got My Eyes On You
  53. Spankers - Chupa Rico
  54. Love Beat feat. Polina Griffiths - Find Out (Dragmatic Remix)
  55. Larry Stylez - I Like My Bass Phat
  56. Groove Addiction - Façam Barulho (Jose Delgado & Alvaro Guerra Remix)
  57. The Sneekers - Pop (You Got It) (A.C.K. & The Whiteliner Remix)
  58. Britney Spears feat. Bonnie Mckee - Hold It Against Me (Martin & Souza Beatin' Loud Remix)
  59. Dabruck & Klein vs. Jean Elan - I've Got My Pryde (Hold My Head High)
  60. Roy Gates feat. Scotty G - Freeze
  61. Chris Kaye - Don't Give Up (Thomas Gold & Matthias Menck Remix)
  62. 50 Cent - Just A Lil Bit (Invoker's Dutch Bootleg)
  63. Deejaymas - Free
  64. Gianni Kosta - I Want To Give You
  65. Cutty Ranks - Limb By Limb
  66. Geo Da Silva feat. Manny Mykonos - Crazy Mykonos
  67. Bartosz Brenes feat. Dan'Thony - Higher (Dani L. Mebius Remix)
  68. Chris Kaeser feat. Erire - Go Deeper(Big Room Mix)
  69. Quintino feat. Mitch Crown - You Can't Deny (Hardwell Remix)
  70. Rico Bernasconi - Clip Clap
  71. Mike Newman - This House Is Mine (Dub Mix)
  72. Elena Gheorghe - Midnight Sun 2010
  73. My Digital Enemy feat. Mary Pearce - Release My Soul
  74. Remady feat. Craig David - Do It On My Own
    Slow Medley 2010:
    Spieldauer 20'40
  75. Trey Songz - Bottoms Up
  76. Rihanna - Rude Boy
  77. Alicia Keys - Empire State Of Mind
  78. Rihanna feat. Eminem - Like The Way It Hurts
  79. Bruno Mars - Billionaire
  80. Iyaz - Solo
  81. Iyaz - Replay
  82. Black Eyed Peas - Imma Be
  83. Bob - Airplanes
  84. Nicki Minaj - Your Love
  85. Train - Hey Soul Sister
  86. Lady Gaga - Alejandro
  87. Sean Kingston - Beautiful Girls
  88. Bruno Mars - Just The Way You Are
  89. Ke$ha - Don't Stop
  90. Ke$ha - Your Love Is My Drug
  91. Usher - DJ Got Us Falting In Love Again
  92. Taio Cruz - Dynamite
  93. Katy Perry - Teenage Dream
  94. Taio Cruz - Heartbreaker
  95. Lady Gaga - Bad Romance
  96. Lady Gaga - Telephone
  97. Lady Antebellum - Need You Now
  98. Katy Perry - California Gurls
  99. La Roux - Bulletproof
  100. Enrique Iglesias feat. Pitbull - I Like It
  101. Flo-Rida - Club Can't Handle Me
  102. David Guetta - Sexy Chick
  103. Black Eyed Peas - Meet Me Halfway
  104. Fast East Movement- Like A G6
Cue-Informationen:

FILE "filename.mp3“ MP3
  TRACK 01 AUDIO
    INDEX 01 00:00:00
  TRACK 02 AUDIO
    INDEX 01 00:35:05
  TRACK 03 AUDIO
    INDEX 01 30:02:48
  TRACK 04 AUDIO
    INDEX 01 56:21:48
Wertung: (1)  
Hinzugefügt: 3 October 2011
RSS Feed
RSS Feed
Sprache
Deutsch Englisch Französisch
Mixsuche
Suchbegriff
Genauer Wortlaut
Alle Worte (UND)
Ein Wort (ODER)
Statistik
14711 Mixe eingetragen
14399 Tracklisten
Newsletter
E-Mail
Anmelden
Abmelden
SPONSOREN