Mixkatalog
 Einloggen
Login
Passwort

Schlager Cafe Hitmix 2011 Hits: 71  

Schlager Cafe Hitmix 2011


Kurzbeschreibung:
EMI Records präsentiert Schlager Cafe Hitmix 2011.
 
Crew/DJ: EMI Records Reihe: Sonstige
Stil: Schlager Erscheinungsjahr: 2011
CDs: 2 Spielzeit: 150:09
Trackliste:
Cue-Informationen:

FILE "filename CD 1.mp3" MP3
  TRACK 01 AUDIO
    INDEX 01 00:00:00
  TRACK 02 AUDIO
    INDEX 01 00:45:16
  TRACK 03 AUDIO
    INDEX 01 03:38:17
  TRACK 04 AUDIO
    INDEX 01 06:51:65
  TRACK 05 AUDIO
    INDEX 01 10:51:01
  TRACK 06 AUDIO
    INDEX 01 14:06:68
  TRACK 07 AUDIO
    INDEX 01 17:51:51
  TRACK 08 AUDIO
    INDEX 01 20:48:68
  TRACK 09 AUDIO
    INDEX 01 24:00:68
  TRACK 10 AUDIO
    INDEX 01 27:16:39
  TRACK 11 AUDIO
    INDEX 01 30:20:10
  TRACK 12 AUDIO
    INDEX 01 35:14:24
  TRACK 13 AUDIO
    INDEX 01 38:23:12
  TRACK 14 AUDIO
    INDEX 01 41:52:00
  TRACK 15 AUDIO
    INDEX 01 44:36:72
  TRACK 16 AUDIO
    INDEX 01 47:39:55
  TRACK 17 AUDIO
    INDEX 01 50:35:70
  TRACK 18 AUDIO
    INDEX 01 53:33:72
  TRACK 19 AUDIO
    INDEX 01 56:43:10
  TRACK 20 AUDIO
    INDEX 01 60:17:72
  TRACK 21 AUDIO
    INDEX 01 63:45:55
  TRACK 22 AUDIO
    INDEX 01 67:00:62
  TRACK 23 AUDIO
    INDEX 01 70:18:11

FILE "filename CD 2.mp3" MP3
  TRACK 01 AUDIO
    INDEX 01 00:00:00
  TRACK 02 AUDIO
    INDEX 01 00:18:29
  TRACK 03 AUDIO
    INDEX 01 03:25:32
  TRACK 04 AUDIO
    INDEX 01 06:52:64
  TRACK 05 AUDIO
    INDEX 01 10:45:24
  TRACK 06 AUDIO
    INDEX 01 14:16:27
  TRACK 07 AUDIO
    INDEX 01 17:17:40
  TRACK 08 AUDIO
    INDEX 01 20:39:56
  TRACK 09 AUDIO
    INDEX 01 23:57:62
  TRACK 10 AUDIO
    INDEX 01 27:26:52
  TRACK 11 AUDIO
    INDEX 01 30:19:13
  TRACK 12 AUDIO
    INDEX 01 33:22:01
  TRACK 13 AUDIO
    INDEX 01 36:17:08
  TRACK 14 AUDIO
    INDEX 01 39:57:41
  TRACK 15 AUDIO
    INDEX 01 43:44:15
  TRACK 16 AUDIO
    INDEX 01 47:12:62
  TRACK 17 AUDIO
    INDEX 01 49:44:08
  TRACK 18 AUDIO
    INDEX 01 54:22:62
  TRACK 19 AUDIO
    INDEX 01 57:20:14
  TRACK 20 AUDIO
    INDEX 01 60:14:45
  TRACK 21 AUDIO
    INDEX 01 65:17:01
  TRACK 22 AUDIO
    INDEX 01 70:03:18
  TRACK 23 AUDIO
    INDEX 01 73:30:68
Wertung: (1)  
Hinzugefügt: 24 September 2011
RSS Feed
RSS Feed
Sprache
Deutsch Englisch Französisch
Mixsuche
Suchbegriff
Genauer Wortlaut
Alle Worte (UND)
Ein Wort (ODER)
Statistik
34842 Mixe eingetragen
32954 Tracklisten
Newsletter
E-Mail
Anmelden
Abmelden
SPONSOREN