Mixkatalog
 Einloggen
Login
Passwort

Party Compilation 22 Hits: 93  

Party Compilation 22


Kurzbeschreibung:
Studio 33 präsentiert die Party Compilation Volume 22, Let´s Have A Party! Gemixt von Breakfreak32.
 
Crew/DJ: Studio 33 Reihe: Party Compilation
Stil: Party Erscheinungsjahr: 2007
Anzahl Tonträger: 1 Spielzeit: 75:42
Trackliste:
Cue-Informationen:

FILE "filename.mp3" MP3
  TRACK 01 AUDIO
    INDEX 01 00:00:00
  TRACK 02 AUDIO
    INDEX 01 00:17:25
  TRACK 03 AUDIO
    INDEX 01 08:07:12
  TRACK 04 AUDIO
    INDEX 01 14:56:50
  TRACK 05 AUDIO
    INDEX 01 21:30:45
  TRACK 06 AUDIO
    INDEX 01 33:32:30
  TRACK 07 AUDIO
    INDEX 01 42:37:30
  TRACK 08 AUDIO
    INDEX 01 52:47:10
  TRACK 09 AUDIO
    INDEX 01 60:41:35
  TRACK 10 AUDIO
    INDEX 01 68:21:35
Wertung: (1)  
Hinzugefügt: 14 November 2009
RSS Feed
RSS Feed
Sprache
Deutsch Englisch Französisch
Mixsuche
Suchbegriff
Genauer Wortlaut
Alle Worte (UND)
Ein Wort (ODER)
Statistik
14581 Mixe eingetragen
14271 Tracklisten
Newsletter
E-Mail
Anmelden
Abmelden
SPONSOREN