Mixkatalog
 Einloggen
Login
Passwort

Dance Control 10 Hits: 4  

Dance Control 10


Kurzbeschreibung:
Deep Records präsentiert den Dance Control Volume 10 gemixt von DJ Deep, der letzte Mix aus der Reihe des Real Deep Magic Dance.
 
Crew/DJ: Deep Records Reihe: Dance Control
Stil: Dance Erscheinungsjahr: 1995
Anzahl Tonträger: 1 Spielzeit: 71:47
Trackliste:
    Dancemix:
    Spieldauer 33'56
  1. Intro
  2. Plug & Play - House Your Body
  3. 740 Boyz - Bump Bump
  4. C-Block - Shake Dat Azz
  5. Double You - Because I'm Loving You
  6. Rockie Beil - Stepping Out Tonight
  7. Indoor - Last Night A DJ Saved My Life
  8. Nightcrawlers - Let's Push It
  9. Moby - Bring Back My Happiness
  10. Culture Beat - Warth & Wait
  11. Toni Di Bart - Turn Your Love Around
  12. Robert Miles - Children
  13. Pech - Blinded By The Light
  14. DJ Sammy - Life Is Just A Game
  15. Partyzone - Partytime
  16. Double Vision - Knockin' (House Mix)
  17. Kadoc - Nighttrain
  18. Alex Party - Wrap Me Up
  19. The Ethics - To The Beat Of The Drum
  20. Plastix - Brr-Babba
  21. C.Y.P. - Now
  22. Jam Man - That House Music
  23. Fun Factory - Doh Wah Diddy
  24. The Free - Shout
  25. Magic Affair - Energy Of Light
  26. Eurogroove - Dive To Paradise
  27. Los Del Rio - Macarena (B.B. Remix)
  28. 2 Unlimited - Jump For Joy (Dub)
  29. Merlyn & Six Wicked Kids - Grooveliker
  30. Kadoc - The Nighttrain
  31. Culture Beat - Crying In The Rain
  32. Snap! feat. Rukmani - Rame
  33. Fingers Inc. - Can You Feel It (Sample)
  34. Mark 'Oh - I Can't Get No (Sample)
  35. Celvin Rotane - Push Me To The Limit (Sample)
  36. Corona - I Don't Wanna Be A Star (Sample)
  37. Ace Of Base - Beautiful Life (Sample)
    Hip Hop Swing:
    Spieldauer 25'24
  38. Shaggy feat. Grand Puba - Why You Treat Me So Bad
  39. Down Low - Don't Look Any Further
  40. Down Low - Vision Of Life
  41. Ro Cee - Gettin' All Do' Babes
  42. Max-A-Million - Sexual Healing
  43. Die Fantastischen Vier - Populär
  44. Alliance Ethnik - Respect
  45. Coolio - Too Hot
  46. Georgie Porgie - Everybody Must Party
  47. Janet Jackson & Coolio - Runaway G-Mah (Remix)
  48. Flip Da Scrip - Throw Ya Hands In The Air '92
  49. R 2 Swing - Get Ready
  50. Beat System - Fresh
  51. Heavy O. - Do Groove
    Soft & Slow:
    Spieldauer 12'20
  52. George Michael - Jesus To A Child
  53. Andry Donalds - Mishale (Deep Culture Droplet Remix)
  54. Deborah Cox - Who Do U Love
  55. Michael Jackson - They Don't Take Care About Us
  56. Madonna - You'll See
Cue-Informationen:

FILE "filename.mp3" MP3
  TRACK 01 AUDIO
    INDEX 01 00:00:00
  TRACK 02 AUDIO
    INDEX 01 33:59:12
  TRACK 03 AUDIO
    INDEX 01 59:27:04
Wertung: (1)   Hinzugefügt: 29 October 2009
RSS Feed
RSS Feed
Sprache
Deutsch Englisch Französisch
Mixsuche
Suchbegriff
Genauer Wortlaut
Alle Worte (UND)
Ein Wort (ODER)
Statistik
14943 Mixe eingetragen
14627 Tracklisten
Newsletter
E-Mail
Anmelden
Abmelden
SPONSOREN