Mixkatalog
 Einloggen
Login
Passwort

Dance Control 09 Hits: 3  

Dance Control 09


Kurzbeschreibung:
Deep Records präsentiert den Dance Control Volume 9 gemixt von DJ Deep, eine weitere Reihe des Real Deep Magic Dance.
 
Crew/DJ: Deep Records Reihe: Dance Control
Stil: Dance Erscheinungsjahr: 1995
Anzahl Tonträger: 1 Spielzeit: 70:57
Trackliste:
    Dancemix:
    Spieldauer 24'44
  1. Intro
  2. K.A.O.H. & Max - Herz Eines Boxers
  3. The Movement Club - Going Back To My Roots
  4. Amadin & Captain Funk - Fonky
  5. E.Mello - The Music's Got Me
  6. Michael Jackson - Earth Song
  7. Housemaid feat. Kim - Fish
  8. 20 Fingers & Katrina - Sex Mashine
  9. M-People - Itchycoo Park
  10. Shauna Davis - Get Away
  11. No Sukkaz - 1-2-3-4 All Ladies On The Floor
  12. 3rd Nation - Real Love
  13. La Switch - Kiss Me Baby
  14. Calvin Rotane - Push Me To The Limit
  15. Sweetbox - Booyah, Here We Go
  16. Baby Bitch - Rock It
  17. The Original - B 2 Gether
  18. The Outhere Brothers - Lalala Heyhey
  19. Culture Beat - Inside Out (Remix)
  20. La Switch - Kiss Me Baby
  21. Tom Wilson - Technocat
  22. Nadine Renee - Don't Take Your Love Away
    Soul und Swingbeat:
    Spieldauer 18'24
  23. Anita Howard - It's All About You
  24. Luniz - I've Got 5 On It
  25. Max A Million - Sexual Healing
  26. Pauline Henry - Sugar Free
  27. Smooth - It's Summer Time
  28. Father MC - I Am What You Want
  29. Luther Vanderos - Power Of Love (Remix)
  30. Isa Sabani - Playin' Games
  31. 5 Ward Boyz - One Night Stand
    Progressive House:
    Spieldauer 27'39
  32. Groove Solution - Magic Melody
  33. Duke - Make Believeland
  34. K.K.'s Project - House Nation
  35. Allnighters - Black Is Black
  36. 400 Hz - I've Got The Music In Me
  37. Party Happening People - People
  38. Two Culture - (He's A) Dreamer
  39. DJ Hooligan - I Want You
  40. Faithless - Insomnia
  41. The O.T. Quartett - Hold That Sucker Down' (Remix)
  42. T.H.K. - So Big
Cue-Informationen:

FILE "filename.mp3" MP3
  TRACK 01 AUDIO
    INDEX 01 00:00:00
  TRACK 02 AUDIO
    INDEX 01 24:49:24
  TRACK 03 AUDIO
    INDEX 01 43:17:44
Wertung: (1)   Hinzugefügt: 29 October 2009
RSS Feed
RSS Feed
Sprache
Deutsch Englisch Französisch
Mixsuche
Suchbegriff
Genauer Wortlaut
Alle Worte (UND)
Ein Wort (ODER)
Statistik
14805 Mixe eingetragen
14492 Tracklisten
Newsletter
E-Mail
Anmelden
Abmelden
SPONSOREN