Mixkatalog
 Einloggen
Login
Passwort

Dance Control 07 Hits: 6  

Dance Control 07


Kurzbeschreibung:
Deep Records präsentiert den Dance Control Volume 7 gemixt von DJ Deep, eine weitere Reihe des Real Deep Magic Dance.
 
Crew/DJ: Deep Records Reihe: Dance Control
Stil: Dance Erscheinungsjahr: 1995
Anzahl Tonträger: 1 Spielzeit: 71:31
Trackliste:
    Dancemix:
    Spieldauer 31'53
  1. Intro
  2. Herbie - I Believe
  3. First Base - Love Is Paradise
  4. Cosmic Base - See The Light
  5. Scatman John - Scatman's World
  6. Centory - Eye In The Sky
  7. Pearl - Summer Holiday
  8. Matador - Ritmo Nacional
  9. Masterboy - Generation Of Love (Remix)
  10. Damage Control - Trust
  11. Captain Hollywood Project - The Way Love Is
  12. Gina Mohamed - Love Is All I See
  13. Onda De Futuro feat. YPS - Storia D'Amore
  14. Odyssey - Everybody Move
  15. Scooter - Endless Summer
  16. Dune - Are You Ready To Fly
  17. Music Instructor - Hymn
  18. Paradise Place - Stargazer
  19. Bass Bumpers - Keep On Pushing (Remix)
  20. Das Modul - Kleine Maus (Remix)
    Hip Hop Party:
    Spieldauer 33'17
  21. Brand Nubian - Hold On
  22. Grandmaster Flash - The Message F4 (Remix)
  23. Kreuz - Party All Night
  24. Mark Morrison - Crazy
  25. Jody Watley - Affection
  26. 2 Ruff - Wicked Witch
  27. Mellowman - La Voie Du Mellow
  28. Montell Jordan - This Is How We Do It
  29. Rappin' 4-Tay - I'll Be Around
  30. Michael Jackson - Scream
  31. PJ & Duncan A-K-A - If I Give You My Number
  32. N-Trance - Staying Alive
  33. Blacknuss - It Should Have Been You
    Bonustrack:
    Spieldauer 6'25
  34. Musk Men - I Never Thought
Cue-Informationen:

FILE "filename.mp3" MP3
  TRACK 01 AUDIO
    INDEX 01 00:00:00
  TRACK 02 AUDIO
    INDEX 01 31:56:29
  TRACK 03 AUDIO
    INDEX 01 65:13:10
Wertung: (1)   Hinzugefügt: 29 October 2009
RSS Feed
RSS Feed
Sprache
Deutsch Englisch Französisch
Mixsuche
Suchbegriff
Genauer Wortlaut
Alle Worte (UND)
Ein Wort (ODER)
Statistik
14805 Mixe eingetragen
14492 Tracklisten
Newsletter
E-Mail
Anmelden
Abmelden
SPONSOREN