Mixkatalog
 Einloggen
Login
Passwort

Dance Control 04 Hits: 6  

Dance Control 04


Kurzbeschreibung:
Deep Records präsentiert den Dance Control Volume 4 gemixt von DJ Deep, eine weitere Reihe des Real Deep Magic Dance.
 
Crew/DJ: Deep Records Reihe: Dance Control
Stil: Dance Erscheinungsjahr: 1995
Anzahl Tonträger: 1 Spielzeit: 73:38
Trackliste:
    Dancemix:
    Spieldauer 42'35
  1. Intro
  2. Marky Mark & Prince Ital Joe - Babylon
  3. Dr. DJ Cerla - Everybody Pom Pom
  4. Ice MC - Megamix
  5. Activate - Save Me (Remix)
  6. Deep Sound 6 - Sport Is Magic
  7. Neon Light - Get Down Everybody
  8. General Base - I See You
  9. Zentral - Baila
  10. Mr. President - I'll Follow The Sun
  11. Sound Factory - Come Take Control
  12. Swing feat. Dr. Alban - Sweet Dreams
  13. Splash - One More Dream
  14. Darkness - In My Dreams
  15. Westbams Hand On Yello - Bostich
  16. Afrika Bambaataa - Feel The Vibe
  17. Solo - Show Me Love
  18. BG Prince Of Rap - Can't Love You
  19. Andreas Dorau - Das Telefon Sagt 'Du'
  20. Snap! feat. 'Summer' - The First, The Last, Eternity
  21. Pharao - I Dream Of You Tonight
  22. Captain Hollywood Projekt - Flying High (Remix)
    M People Megamix:
    Spieldauer 20'02
  23. M People - How Can I Love You More
  24. M People - One Night In Heaven
  25. M People - Moving On Up
  26. M People - You Just Have To Be There
  27. M People - Renaissance
  28. M People - La Vida Loca
  29. M People - Someday
  30. M People - Sight For Score Eyes
  31. M People - Sugartown
  32. M People - Melody Of Life
  33. M People - Exited
  34. M People - Open Your Heart
  35. M People - One Night In Heaven
  36. M People - Color My Life
  37. M People - Don't Look Any Further
    Space Trip:
    Spieldauer 10'55
  38. Ma-Radscha - Right Now
  39. U96 - Club Bizarre
  40. Pascal Device - Violet Space
  41. General Base - General Base
  42. Bommbastic - Technology
  43. Solo - Fast Forward
  44. Painted Heard - Tainted Love
  45. Westbams Hand On Yello - Bostich
Cue-Informationen:

FILE "filename.mp3" MP3
  TRACK 01 AUDIO
    INDEX 01 00:00:00
  TRACK 02 AUDIO
    INDEX 01 42:36:56
  TRACK 03 AUDIO
    INDEX 01 62:42:10
Wertung: (1)   Hinzugefügt: 29 October 2009
RSS Feed
RSS Feed
Sprache
Deutsch Englisch Französisch
Mixsuche
Suchbegriff
Genauer Wortlaut
Alle Worte (UND)
Ein Wort (ODER)
Statistik
14805 Mixe eingetragen
14492 Tracklisten
Newsletter
E-Mail
Anmelden
Abmelden
SPONSOREN