Mixkatalog
 Einloggen
Login
Passwort

Dance Control 02 Hits: 1  

Dance Control 02


Kurzbeschreibung:
Deep Records präsentiert den Dance Control Volume 2 gemixt von DJ Deep, eine weitere Reihe des Real Deep Magic Dance.
 
Crew/DJ: Deep Records Reihe: Dance Control
Stil: Dance Erscheinungsjahr: 1994
Anzahl Tonträger: 1 Spielzeit: 69:40
Trackliste:
    Dancemix 1:
    Spieldauer 22'29
  1. Intro
  2. Dr. Alban - Let The Beat Go On
  3. Capella - Move It Up
  4. Eclipse feat. Angela Martin - Change Your Love
  5. PM Sampson - Ain't Over Now
  6. Ice MC - It's A Rainy Day
  7. Men Behind - How I Can
  8. Bass Bumpers - Good Fun
  9. Paul van Dyke - Pumpin'
  10. BG The Prince Of Rap - Rock A Bit
  11. Moratto - La Fuerza Pagana
  12. The Free - Lover On The Line
  13. Maxxess feat. Cherokee - Party Your Body (Remix 2)
  14. DJ Bobo - Let The Dream Come Thrue
    Speed Of Light:
    Spieldauer 11'36
  15. Odyssey - Into The Light (Remix 1)
  16. Bass Bumpers - Good Fun
  17. Interactive - Forever Young
  18. Perplexer - Da Capo
  19. Microcosmica - Estrella De La Noche
  20. Illuminate - Terra Del Fuego
  21. Rotrigez - Attacke
    Soul Show:
    Spieldauer 18'47
  22. Nona Gaye & Lovesymbol - Lovesign
  23. R. Kelly - Summer Bunnies
  24. Drizabone - Brightest Star
  25. Coolio - Fantastic Voyage
  26. The Affair - Are You Ready
  27. Charlene Smith - I Learned My Lesson
  28. Heavy D. & The Boys - This Is Your Night
    Dancemix 2:
    Spieldauer 16'37
  29. Major T. - I Can Only Give You My Heart
  30. Arena - Fly Away
  31. Technotronic - Move It To The Rhythm
  32. Aquarius - Fly Away
  33. Beatexpirience - Raggadaggadadiggidingdiggidong
  34. The Outhere Brothers - Don't Stop
  35. Coco - I Had A Dream
  36. Bass Bumpers - Good Fun
Cue-Informationen:

FILE "filename.mp3" MP3
  TRACK 01 AUDIO
    INDEX 01 00:00:00
  TRACK 02 AUDIO
    INDEX 01 22:33:00
  TRACK 03 AUDIO
    INDEX 01 34:10:67
  TRACK 04 AUDIO
    INDEX 01 53:02:00
Wertung: (1)   Hinzugefügt: 29 October 2009
RSS Feed
RSS Feed
Sprache
Deutsch Englisch Französisch
Mixsuche
Suchbegriff
Genauer Wortlaut
Alle Worte (UND)
Ein Wort (ODER)
Statistik
14943 Mixe eingetragen
14627 Tracklisten
Newsletter
E-Mail
Anmelden
Abmelden
SPONSOREN