Mixkatalog
 Einloggen
Login
Passwort

Megamix Chart Hits 2022 Hits: 1  

Megamix Chart Hits 2022


Kurzbeschreibung:
Move-Ya präsentiert Megamix Chart Hits 2022, gemixt von DJ Flim Flam.
 
Crew/DJ: Move-Ya Reihe: Megamix Chart Hits
Stil: Dance Erscheinungsjahr: 2022
Anzahl Tonträger: 1 Spielzeit: 79:46
Trackliste:
  1. DJ Flim Flam - Megamix 2022 Intro
  2. Shouse - Won't Forget You
  3. Softmal, Lucenamusic & Llolita - Vamos A Bailar
  4. Willy William - Trompeta
  5. Jason Derulo - Acapulco (Remix)
  6. Jax Jones feat. MNEK - Where Did You Go?
  7. Kalush Orchestra - Stefania
  8. Roxette, Galantis - Fading Like A Flower
  9. Kygo, DNCE - Dancing Feet
  10. Imanbek & LP - Fighter
  11. Joel Corry feat. Mabel - I Wish
  12. Imanbek, Wiz Khalifa & KDDK feat. KIDDO - Ordinary Life
  13. Alesso & Katy Perry - When I'm Gone
  14. Farruko - Pepas
  15. Felix Jaehn, The Stickman Project, Calum Scott - Rain In Ibiza
  16. YouNotUs - Samba
  17. YOU - Find U (Ready Or Not)
  18. David Guetta, Becky Hill & Ella Henderson - Crazy What Love Can Do
  19. Topic, Robin Schulz, Nico Santos & Paul van Dyk - In Your Arms (For An Angel)
  20. Purple Disco Machine feat. Eyelar - Dopamine
  21. David Guetta, MistaJam & John Newman - If You Really Love Me (How Will I Know)
  22. Dance Fruits Music - Summer Jam
  23. Topic & A7S - Kernkraft 400 (A Better Day)
  24. Majestic & Boney M. - Rasputin
  25. Men At Work - Down Under (Remix)
  26. Meduza feat. Hozier - Tell It To My Heart
  27. Harry Styles - As It Was
  28. Tenchi x Shaggy x Embody feat. Moss Kena - It Wasn't Me
  29. Tiësto, KAROL G - Don't Be Shy
  30. Lost Frequencies, Calum Scott - Where Are You Now
  31. Purple Disco Machine, Sophie & The Giants - In The Dark
  32. Regard, Years & Years - Hallucination
  33. Gryffin feat. LOVA - Piece Of Me
  34. Felix Jaehn feat. Zoe Wees - Do It Better
  35. Stephan F & Tony T. - Long Road
  36. Joel Corry, Jax Jones feat. Charli XCX & Saweetie - Out Out
  37. Harlee - Reset (Joel Corry Remix)
  38. Jonas Blue & Why Don't We - Don't Wake Me Up
  39. Ancalima & Tom Franke - Better Off Alone
  40. Sigala - Melody
  41. Nathan Dawe feat. Ella Henderson - 21 Reasons
  42. Akon - Bananza (Belly Dancer)
  43. Galantis, David Guetta & Little Mix - Heartbreak Anthem
  44. Glockenbach, ClockClock - Brooklyn
  45. Kungs - Clap Your Hands
  46. Camila Cabello & Ed Sheeran - Bam Bam
  47. Becky Hill feat. Topic - My Heart Goes (La Di Da)
  48. Gayle - ABCDEFU (Remix)
  49. Felix Jaehn - I Got A Feeling
  50. MATTN x Selva - Sandstorm
  51. FLGTT - Insomnia
Cue-Informationen:

  TRACK 01 AUDIO
    INDEX 01 00:00:00
  TRACK 02 AUDIO
    INDEX 01 02:12:08
  TRACK 03 AUDIO
    INDEX 01 03:42:08
  TRACK 04 AUDIO
    INDEX 01 04:27:08
  TRACK 05 AUDIO
    INDEX 01 05:42:08
  TRACK 06 AUDIO
    INDEX 01 07:27:08
  TRACK 07 AUDIO
    INDEX 01 08:27:08
  TRACK 08 AUDIO
    INDEX 01 09:42:08
  TRACK 09 AUDIO
    INDEX 01 10:27:08
  TRACK 10 AUDIO
    INDEX 01 11:57:08
  TRACK 11 AUDIO
    INDEX 01 14:11:66
  TRACK 12 AUDIO
    INDEX 01 16:25:62
  TRACK 13 AUDIO
    INDEX 01 17:55:10
  TRACK 14 AUDIO
    INDEX 01 19:39:24
  TRACK 15 AUDIO
    INDEX 01 21:53:21
  TRACK 16 AUDIO
    INDEX 01 23:07:51
  TRACK 17 AUDIO
    INDEX 01 24:22:08
  TRACK 18 AUDIO
    INDEX 01 25:21:14
  TRACK 19 AUDIO
    INDEX 01 26:49:60
  TRACK 20 AUDIO
    INDEX 01 27:34:08
  TRACK 21 AUDIO
    INDEX 01 29:47:02
  TRACK 22 AUDIO
    INDEX 01 31:44:21
  TRACK 23 AUDIO
    INDEX 01 33:26:66
  TRACK 24 AUDIO
    INDEX 01 34:25:38
  TRACK 25 AUDIO
    INDEX 01 35:38:59
  TRACK 26 AUDIO
    INDEX 01 37:35:53
  TRACK 27 AUDIO
    INDEX 01 38:33:67
  TRACK 28 AUDIO
    INDEX 01 39:46:46
  TRACK 29 AUDIO
    INDEX 01 41:42:73
  TRACK 30 AUDIO
    INDEX 01 43:10:19
  TRACK 31 AUDIO
    INDEX 01 44:37:39
  TRACK 32 AUDIO
    INDEX 01 46:47:58
  TRACK 33 AUDIO
    INDEX 01 48:28:62
  TRACK 34 AUDIO
    INDEX 01 50:09:66
  TRACK 35 AUDIO
    INDEX 01 52:19:44
  TRACK 36 AUDIO
    INDEX 01 54:42:65
  TRACK 37 AUDIO
    INDEX 01 56:51:62
  TRACK 38 AUDIO
    INDEX 01 59:29:32
  TRACK 39 AUDIO
    INDEX 01 61:37:65
  TRACK 40 AUDIO
    INDEX 01 62:34:57
  TRACK 41 AUDIO
    INDEX 01 64:28:24
  TRACK 42 AUDIO
    INDEX 01 65:38:68
  TRACK 43 AUDIO
    INDEX 01 67:31:64
  TRACK 44 AUDIO
    INDEX 01 69:38:53
  TRACK 45 AUDIO
    INDEX 01 70:34:57
  TRACK 46 AUDIO
    INDEX 01 72:12:65
  TRACK 47 AUDIO
    INDEX 01 73:22:71
  TRACK 48 AUDIO
    INDEX 01 74:47:02
  TRACK 49 AUDIO
    INDEX 01 76:24:31
  TRACK 50 AUDIO
    INDEX 01 77:33:74
  TRACK 51 AUDIO
    INDEX 01 78:15:54
Wertung: (2)   Hinzugefügt: 13 August 2022
RSS Feed
RSS Feed
Sprache
Deutsch Englisch Französisch
Mixsuche
Suchbegriff
Genauer Wortlaut
Alle Worte (UND)
Ein Wort (ODER)
Statistik
14943 Mixe eingetragen
14627 Tracklisten
Newsletter
E-Mail
Anmelden
Abmelden
SPONSOREN