Mixkatalog
 Einloggen
Login
Passwort

D.J. Time Best Of 2007 Hits: 94  

D.J. Time Best Of 2007


Kurzbeschreibung:
DJ Hot J präsentiert den Mix DJ Time Best Of 2007.
 
Crew/DJ: DJ Hot J Reihe: DJ Time
Stil: House Erscheinungsjahr: 2007
Anzahl Tonträger: 1 Spielzeit: 77:32
Trackliste:
Cue-Informationen:

PERFORMER "VA"
TITLE "D.J. Time Best Of 2007 (Mixed By D.J. Hot J)"
FILE "01-va-d.j._time_best_of_2007.mp3" MP3
  TRACK 01 AUDIO
    TITLE "Intro"
    PERFORMER "D.J. Hot J"
    INDEX 01 00:00:00
  TRACK 02 AUDIO
    TITLE "Change (Late Night Mix)"
    PERFORMER "Djaimin feat. Crystal Reclear & Buddah Monk"
    INDEX 01 00:22:31
  TRACK 03 AUDIO
    TITLE "Aint Nothing But A Heartache (Club Mix)"
    PERFORMER "Freemasons"
    INDEX 01 05:39:59
  TRACK 04 AUDIO
    TITLE "Only Love (Bootleg Club Mix)"
    PERFORMER "Hot Jay vs. Cash"
    INDEX 01 09:47:43
  TRACK 05 AUDIO
    TITLE "Let The Music Spill (Original Mix)"
    PERFORMER "M & S pres. Starvue"
    INDEX 01 13:29:23
  TRACK 06 AUDIO
    TITLE "Get Down (Warren Clarke Club Mix)"
    PERFORMER "Todd Terry All-Stars"
    INDEX 01 18:29:64
  TRACK 07 AUDIO
    TITLE "Soulheaven (Original Mix)"
    PERFORMER "Henrik B feat. Terri B"
    INDEX 01 23:25:23
  TRACK 08 AUDIO
    TITLE "Watch Out (Extended Mix)"
    PERFORMER "Alex Gaudino"
    INDEX 01 28:54:33
  TRACK 09 AUDIO
    TITLE "I Found U (Remode)"
    PERFORMER "Axwell"
    INDEX 01 34:23:17
  TRACK 10 AUDIO
    TITLE "Like This Like That (Alex Gaudino & Jason Rooney Remix)"
    PERFORMER "Se:Sa feat. Sharon Phillips"
    INDEX 01 39:25:47
  TRACK 11 AUDIO
    TITLE "Rise Up (Vandalism Remix)"
    PERFORMER "Yves Larock"
    INDEX 01 45:32:25
  TRACK 12 AUDIO
    TITLE "Let It Go (Original Mix)"
    PERFORMER "Dirty South"
    INDEX 01 50:41:74
  TRACK 13 AUDIO
    TITLE "Baby When The Light (Dirty South Remix)"
    PERFORMER "David Guetta feat. Cozi"
    INDEX 01 56:45:56
  TRACK 14 AUDIO
    TITLE "Let Me Think About It (Club Mix)"
    PERFORMER "Ida Corr vs. Fedde Le Grand"
    INDEX 01 60:48:25
  TRACK 15 AUDIO
    TITLE "I Want Your Soul (Original)"
    PERFORMER "Armand van Helden"
    INDEX 01 66:06:55
  TRACK 16 AUDIO
    TITLE "If (Original Mix)"
    PERFORMER "Seamus Haji & Paul Emanuel feat. Robert Owens"
    INDEX 01 71:08:50
Wertung: ()  
Hinzugefügt: 7 January 2022
Bewerte als Erster diesen Mix:
RSS Feed
RSS Feed
Sprache
Deutsch Englisch Französisch
Mixsuche
Suchbegriff
Genauer Wortlaut
Alle Worte (UND)
Ein Wort (ODER)
Statistik
14581 Mixe eingetragen
14271 Tracklisten
Newsletter
E-Mail
Anmelden
Abmelden
SPONSOREN