Mixkatalog
 Einloggen
Login
Passwort

D.J. Time Best Of 2008 Hits: 105  

D.J. Time Best Of 2008


Kurzbeschreibung:
DJ Hot J präsentiert den Mix DJ Time Best Of 2008.
 
Crew/DJ: DJ Hot J Reihe: DJ Time
Stil: House Erscheinungsjahr: 2008
Anzahl Tonträger: 1 Spielzeit: 78:44
Trackliste:
Cue-Informationen:

PERFORMER "D.J. Time Best Of 2008 (Mixed By D.J. Hot J)"
TITLE "VA"
FILE "01-va-d.j._time_best_of_2008_(mixed_by_d.j._hot_j).mp3" MP3
  TRACK 01 AUDIO
    TITLE "Intro"
    PERFORMER "D.J. Hot J"
    INDEX 01 00:00:00
  TRACK 02 AUDIO
    TITLE "4 Minutes (Bob Sinclar Space Funk Mix)"
    PERFORMER "Madonna feat. Justin Timberlake"
    INDEX 01 00:26:45
  TRACK 03 AUDIO
    TITLE "Lets Get Back The Feeling (Club Mix)"
    PERFORMER "Samuele Sartini vs. Jordan Dee feat. Cece Rogers"
    INDEX 01 05:21:39
  TRACK 04 AUDIO
    TITLE "When You Touch Me (2008 Club Mix)"
    PERFORMER "Freemasons feat. Katherine Ellis"
    INDEX 01 10:47:34
  TRACK 05 AUDIO
    TITLE "Music Talking (Fred Falke Remix)"
    PERFORMER "The Montanas & DJ Roland Clark"
    INDEX 01 16:31:17
  TRACK 06 AUDIO
    TITLE "It's Alright (Alex Gaudino Remix)"
    PERFORMER "Gadjo"
    INDEX 01 22:26:40
  TRACK 07 AUDIO
    TITLE "Only Love 2009 (Electro Bootleg Club Mix)"
    PERFORMER "Hot Jay vs. Cash"
    INDEX 01 27:13:07
  TRACK 08 AUDIO
    TITLE "When The Sun Comes Down (Spencer & Hill Remix)"
    PERFORMER "R.I.O."
    INDEX 01 32:51:60
  TRACK 09 AUDIO
    TITLE "Shingaling (Original)"
    PERFORMER "Jean Claude Ades & Vincent Thomas"
    INDEX 01 38:11:13
  TRACK 10 AUDIO
    TITLE "Say Yeah (Edxs Ibiza Sunrise Remix)"
    PERFORMER "Yves Larock"
    INDEX 01 43:43:03
  TRACK 11 AUDIO
    TITLE "Pjanoo Yeke (Hot Jay Private Bootleg Mix)"
    PERFORMER "Eric Prydz"
    INDEX 01 50:08:54
  TRACK 12 AUDIO
    TITLE "Better Day (TV Rock Mix)"
    PERFORMER "Dirty South & Paul Harris"
    INDEX 01 56:04:64
  TRACK 13 AUDIO
    TITLE "Been A Long Time (Laidback Luke Remix)"
    PERFORMER "TV Rock feat. Rudy"
    INDEX 01 61:46:60
  TRACK 14 AUDIO
    TITLE "Head 2 Toe (Bart B More Party Dub)"
    PERFORMER "Seamus Haji pres. Doug Lazy"
    INDEX 01 68:21:50
  TRACK 15 AUDIO
    TITLE "Going Back To My Roots (Original Mix)"
    PERFORMER "Big World & Denis The Menace feat. Inusa"
    INDEX 01 71:34:21
Wertung: ()  
Hinzugefügt: 7 January 2022
Bewerte als Erster diesen Mix:
RSS Feed
RSS Feed
Sprache
Deutsch Englisch Französisch
Mixsuche
Suchbegriff
Genauer Wortlaut
Alle Worte (UND)
Ein Wort (ODER)
Statistik
14581 Mixe eingetragen
14271 Tracklisten
Newsletter
E-Mail
Anmelden
Abmelden
SPONSOREN