Mixkatalog
 Einloggen
Login
Passwort

D.J. Time Best Of 2009 Hits: 4  

D.J. Time Best Of 2009


Kurzbeschreibung:
DJ Hot J präsentiert den Mix DJ Time Best Of 2009.
 
Crew/DJ: DJ Hot J Reihe: DJ Time
Stil: House Erscheinungsjahr: 2009
Anzahl Tonträger: 1 Spielzeit: 78:58
Trackliste:
  1. Armand van Helden & A-Trak pres. Duck Sauce - Anyway (Extended Mix)
  2. Alex Gaudino & Steve Edwards - Take Me Down (Alex Gaudino & Jason Rooney Original Mix)
  3. The Viron Ltd. feat. Max C - Wanna Be Happy (Thomas Gold Remix)
  4. Simply Red - Money's Too Tight To Mention (Alex Gaudino & Jason Rooney Remix)
  5. David Guetta feat. Kelly Rowland - When Love Takes Over (Original Extended)
  6. Arno Cost & Tristan Garnier feat. Errol Reid - Last Forever (DBN Remix)
  7. The Temper Trap - Sweet Disposition (Axwell & Dirty South Remix)
  8. Tv Rock feat. Rudy - In The Air (Axwell Remix)
  9. Swedish House Mafia - Leave The World Behind (Ranucci, Pelusi & Provenzano Remix)
  10. Eddie Thoneick feat. Andy P. - Love Under Pressure (Kurd Maverick Mix)
  11. Bob Sinclar - New New New (Avicii Remix)
  12. Pryda - Lift (Original Mix)
  13. The Trixx feat. Inusa - My Life Is A Party (Hot Jay vs. Cash Adria Club Mix)
  14. Hot Jay vs. Cash - Only Love 2009 (The Trixx Remix)
Cue-Informationen:

PERFORMER "Va"
TITLE "D.J. Time Best Of 2009 (Mixed By: D.J. Hot J)"
FILE "01-va-d.j._time_best_of_2009_(mixed_by_d.j._hot_j).mp3" MP3
  TRACK 01 AUDIO
    TITLE "Anyway (Extended Mix)"
    PERFORMER "Armand van Helden & A-Trak pres. Duck Sauce"
    INDEX 01 00:00:00
  TRACK 02 AUDIO
    TITLE "Take Me Down (Alex Gaudino & Jason Rooney Original Mix)"
    PERFORMER "Alex Gaudino & Steve Edwards"
    INDEX 01 05:28:53
  TRACK 03 AUDIO
    TITLE "Wanna Be Happy (Thomas Gold Remix)"
    PERFORMER "The Viron Ltd. feat. Max C"
    INDEX 01 11:30:20
  TRACK 04 AUDIO
    TITLE "Money`S Too Tight To Mention (Alex Gaudino & Jason Rooney
Remix)"
    PERFORMER "Simply Red"
    INDEX 01 17:09:48
  TRACK 05 AUDIO
    TITLE "When Love Takes Over (Original Extended)"
    PERFORMER "David Guetta feat. Kelly Rowland"
    INDEX 01 21:11:38
  TRACK 06 AUDIO
    TITLE "Last Forever (Dbn Remix)"
    PERFORMER "Arno Cost & Tristan Garnier feat. Errol Reid"
    INDEX 01 25:45:55
  TRACK 07 AUDIO
    TITLE "Sweet Disposition (Axwell & Dirty South Remix)"
    PERFORMER "The Temper Trap"
    INDEX 01 33:03:65
  TRACK 08 AUDIO
    TITLE "In The Air (Axwell Remix) "
    PERFORMER "Tv Rock feat. Rudy"
    INDEX 01 38:26:30
  TRACK 09 AUDIO
    TITLE "Leave The World Behind (Ranucci, Pelusi & Provenzano
Remix)"
    PERFORMER "Swedish House Mafia"
    INDEX 01 43:55:33
  TRACK 10 AUDIO
    TITLE "Love Under Pressure (Kurd Maverick Mix)"
    PERFORMER "Eddie Thoneick feat. Andy P."
    INDEX 01 48:12:24
  TRACK 11 AUDIO
    TITLE "New New New (Avicii Remix)"
    PERFORMER "Bob Sinclar"
    INDEX 01 53:59:66
  TRACK 12 AUDIO
    TITLE "Lift (Original Mix)"
    PERFORMER "Pryda"
    INDEX 01 60:45:27
  TRACK 13 AUDIO
    TITLE "My Life Is A Party (Hot Jay vs. Cash Adria Club Mix)"
    PERFORMER "The Trixx feat. Inusa"
    INDEX 01 67:51:09
  TRACK 14 AUDIO
    TITLE "Only Love 2009 (The Trixx Remix)"
    PERFORMER "Hot Jay vs. Cash"
    INDEX 01 73:07:55
Wertung: ()   Hinzugefügt: 7 January 2022
Bewerte als Erster diesen Mix:
RSS Feed
RSS Feed
Sprache
Deutsch Englisch Französisch
Mixsuche
Suchbegriff
Genauer Wortlaut
Alle Worte (UND)
Ein Wort (ODER)
Statistik
14805 Mixe eingetragen
14492 Tracklisten
Newsletter
E-Mail
Anmelden
Abmelden
SPONSOREN