Mixkatalog
 Einloggen
Login
Passwort

D.J. Time Best Of 2010 Hits: 3  

D.J. Time Best Of 2010


Kurzbeschreibung:
DJ Hot J präsentiert den Mix DJ Time Best Of 2010.
 
Crew/DJ: DJ Hot J Reihe: DJ Time
Stil: House Erscheinungsjahr: 2010
Anzahl Tonträger: 1 Spielzeit: 75:51
Trackliste:
  1. Uffie feat. Pharrell Williams - Add Suv (Armand van Helden Vocal Remix) + Intro By DJ Hot J
  2. Riva Starr feat. Rettore - Splendido (Vocal Mix)
  3. Reboot - Enjoy Music (Riva Starr Remix)
  4. Yolanda Be Cool & DCup - We No Speak Americano (Alvaro Rework)
  5. David Guetta feat. Kid Cudi - Memories (Extended) + Acapella By Kelis
  6. The Shapeshifters feat. Steve Edwards - She Freaks (Original Mix)
  7. Cristian Marchi & Nari & Milani feat. Max C - I Got You (Antillas & Dankann Inda House Rework)
  8. Axwell feat. Errol Reid - Nothing But Love (Extended Vocal Mix)
  9. Tim Berg - Seek Bromance (Avicii's Vocal Extended Mix)
  10. Dirty South feat. Rudy - Phazing (Norman Doray Remix)
  11. Swedish House Mafia vs. Tinie Tempah - Miami 2 Ibiza (Extended Vocal Mix Explicit) + Alors On Danse
  12. Deadmau5 - Some Chords
  13. Afrojack feat. Eva Simons - Take Over Control (Extended Vocal Mix)
  14. Nanchang Nancy & Prok & Fitch - Walk With Me (Axwell vs. Daddy's Groove Remix)
  15. Yenson - My Feeling (Deniz Koyu Remix)
  16. Fedde Le Grand & Mr. V - Back & Forth (Full Vocal Mix) + Outro By DJ Hot J
Cue-Informationen:

PERFORMER "VA"
TITLE "D.J. Time Best Of 2010 (Mixed By: D.J. Hot J)"
FILE "D.J. Time Best Of 2010 (Mixed By: D.J. Hot J).mp3" MP3
  TRACK 01 AUDIO
    TITLE "Add Suv (Armand van Helden Vocal Remix) + Intro By DJ Hot
J"
    PERFORMER "Uffie feat. Pharrell Williams"
    INDEX 01 00:00:00
  TRACK 02 AUDIO
    TITLE "Splendido (Vocal Mix)"
    PERFORMER "Riva Starr feat. Rettore"
    INDEX 01 04:19:65
  TRACK 03 AUDIO
    TITLE "Enjoy Music (Riva Starr Remix)"
    PERFORMER "Reboot"
    INDEX 01 10:01:65
  TRACK 04 AUDIO
    TITLE "We No Speak Americano (Alvaro Rework)"
    PERFORMER "Yolanda Be Cool & DCup"
    INDEX 01 11:05:62
  TRACK 05 AUDIO
    TITLE "Memories (Extended) + Acapella By Kelis"
    PERFORMER "David Guetta feat. Kid Cudi"
    INDEX 01 15:05:38
  TRACK 06 AUDIO
    TITLE "She Freaks (Original Mix)"
    PERFORMER "The Shapeshifters feat. Steve Edwards"
    INDEX 01 19:35:51
  TRACK 07 AUDIO
    TITLE "I Got You (Antillas & Dankann Inda House Rework)"
    PERFORMER "Cristian Marchi & Nari & Milani feat. Max C"
    INDEX 01 25:42:59
  TRACK 08 AUDIO
    TITLE "Nothing But Love (Extended Vocal Mix)"
    PERFORMER "Axwell feat. Errol Reid"
    INDEX 01 29:58:57
  TRACK 09 AUDIO
    TITLE "Seek Bromance (Avicii's Vocal Extended Mix)"
    PERFORMER "Tim Berg"
    INDEX 01 34:34:59
  TRACK 10 AUDIO
    TITLE "Phazing (Norman Doray Remix)"
    PERFORMER "Dirty South feat. Rudy"
    INDEX 01 41:22:06
  TRACK 11 AUDIO
    TITLE "Miami 2 Ibiza (Extended Vocal Mix Explicit) + Alors On
Danse"
    PERFORMER "Swedish House Mafia vs. Tinie Tempah"
    INDEX 01 47:13:50
  TRACK 12 AUDIO
    TITLE "Some Chords"
    PERFORMER "Deadmau5"
    INDEX 01 51:18:19
  TRACK 13 AUDIO
    TITLE "Take Over Control (Extended Vocal Mix)"
    PERFORMER "Afrojack feat. Eva Simons"
    INDEX 01 56:49:63
  TRACK 14 AUDIO
    TITLE "Walk With Me (Axwell vs. Daddy's Groove Remix)"
    PERFORMER "Nanchang Nancy & Prok & Fitch"
    INDEX 01 62:33:15
  TRACK 15 AUDIO
    TITLE "My Feeling (Deniz Koyu Remix)"
    PERFORMER "Yenson"
    INDEX 01 66:18:18
  TRACK 16 AUDIO
    TITLE "Back & Forth (Full Vocal Mix) + Outro By DJ Hot J"
    PERFORMER "Fedde Le Grand & Mr. V"
    INDEX 01 71:18:18
Wertung: ()   Hinzugefügt: 7 January 2022
Bewerte als Erster diesen Mix:
RSS Feed
RSS Feed
Sprache
Deutsch Englisch Französisch
Mixsuche
Suchbegriff
Genauer Wortlaut
Alle Worte (UND)
Ein Wort (ODER)
Statistik
14805 Mixe eingetragen
14492 Tracklisten
Newsletter
E-Mail
Anmelden
Abmelden
SPONSOREN