Mixkatalog
 Einloggen
Login
Passwort

D.J. Time Best Of 2011 Hits: 91  

D.J. Time Best Of 2011


Kurzbeschreibung:
DJ Hot J präsentiert den Mix DJ Time Best Of 2011.
 
Crew/DJ: DJ Hot J Reihe: DJ Time
Stil: House Erscheinungsjahr: 2011
Anzahl Tonträger: 1 Spielzeit: 79:01
Trackliste:
Cue-Informationen:

PERFORMER "VA"
TITLE "D.J. Time Best Of 2011 (Mixed By: D.J. Hot J)"
FILE "01-va-d.j._time_best_of_2011_(mixed_by_d.j._hot_j).mp3" MP3
  TRACK 01 AUDIO
    TITLE "New Day (Original Mix)"
    PERFORMER "Olav Basoski"
    INDEX 01 00:00:00
  TRACK 02 AUDIO
    TITLE "So Much Love (Original Club Mix)"
    PERFORMER "Fedde Le Grand"
    INDEX 01 05:34:65
  TRACK 03 AUDIO
    TITLE "Where Them Girls At (Extended Mix)"
    PERFORMER "David Guetta feat. Flo Rida & Nicki Minaj"
    INDEX 01 09:07:33
  TRACK 04 AUDIO
    TITLE "What A Feeling (Im Still In Love Club Mix)"
    PERFORMER "Alex Gaudino feat. Kelly Rowland"
    INDEX 01 14:14:31
  TRACK 05 AUDIO
    TITLE "When You Got Love (Original Extended Mix)"
    PERFORMER "Michael Canitrot & Ron Carroll"
    INDEX 01 20:18:04
  TRACK 06 AUDIO
    TITLE "Take Me To The Stars (Cristian Marchi & Paolo Sandrini Flow
Mix)"
    PERFORMER "Nari & Milani & Cristian Marchi feat. Shena"
    INDEX 01 24:10:04
  TRACK 07 AUDIO
    TITLE "Every Teardrop Is a Waterfall (Swedish House Mafia Remix)"
    PERFORMER "Coldplay"
    INDEX 01 28:08:29
  TRACK 08 AUDIO
    TITLE "We Found Love (Chuckie Extended Remix)"
    PERFORMER "Rihanna feat. Calvin Harris"
    INDEX 01 33:32:42
  TRACK 09 AUDIO
    TITLE "Save The World (Extended Mix)"
    PERFORMER "Swedish House Mafia"
    INDEX 01 38:09:63
  TRACK 10 AUDIO
    TITLE "Bullets (Adrian Lux & Nause Club Remix) "
    PERFORMER "Rebecca & Fiona"
    INDEX 01 42:48:72
  TRACK 11 AUDIO
    TITLE "My Eyes Are Open (Original Mix)"
    PERFORMER "Phunktjan feat. Max C"
    INDEX 01 47:49:07
  TRACK 12 AUDIO
    TITLE "ID (Levels) (Original Mix)"
    PERFORMER "Avicii"
    INDEX 01 53:07:21
  TRACK 13 AUDIO
    TITLE "Set Fire To The Rain (Thomas Gold Remix) "
    PERFORMER "Adele"
    INDEX 01 57:29:38
  TRACK 14 AUDIO
    TITLE "Were Not Alone (Hi Scandinavia!) (Original Mix)"
    PERFORMER "Matisse & Sadko feat. Ollie James"
    INDEX 01 62:12:05
  TRACK 15 AUDIO
    TITLE "Natural Disaster (Vocal Mix)"
    PERFORMER "Laidback Luke vs. Example"
    INDEX 01 66:03:03
  TRACK 16 AUDIO
    TITLE "Walking Alone (Original Mix) "
    PERFORMER "Dirty South & Those Usual Suspects feat. Erik Hecht"
    INDEX 01 71:13:02
  TRACK 17 AUDIO
    TITLE "Heart Is King"
    PERFORMER "Axwell"
    INDEX 01 75:28:12
Wertung: ()  
Hinzugefügt: 7 January 2022
Bewerte als Erster diesen Mix:
RSS Feed
RSS Feed
Sprache
Deutsch Englisch Französisch
Mixsuche
Suchbegriff
Genauer Wortlaut
Alle Worte (UND)
Ein Wort (ODER)
Statistik
14581 Mixe eingetragen
14271 Tracklisten
Newsletter
E-Mail
Anmelden
Abmelden
SPONSOREN