Mixkatalog
 Einloggen
Login
Passwort

D.J. Time Best Of 2012 Hits: 1  

D.J. Time Best Of 2012


Kurzbeschreibung:
DJ Hot J präsentiert den Mix DJ Time Best Of 2012.
 
Crew/DJ: DJ Hot J Reihe: DJ Time
Stil: House Erscheinungsjahr: 2021
Anzahl Tonträger: 1 Spielzeit: 75:01
Trackliste:
  1. Alesso vs. Keane - Silenced By The Night (Alesso Remix)
  2. Eric Prydz - Every Day
  3. AN21 & Max Vangeli feat. Julie McKnight - Bombs Over Capitals (Original Mix)
  4. Deniz Koyu feat. Wynter Gordon - Follow You (Original Mix)
  5. Martin Solveig - The Night Out (Maison & Dragen Remix)
  6. Laidback Luke feat. Martel - We Are The Stars (Club Mix)
  7. Denzal Park vs. Kings Of Tomorrow - Finally Amarok (Marino Tomicic Private Bootleg)
  8. Swedish House Mafia - Greyhound (Original Mix)
  9. Ivan Gough & Feenixpawl feat. Georgi Kay - In My Mind (Axwell Mix)
  10. David Guetta feat. Chris Brown & Lil Wayne - I Can Only Imagine (David Guetta & Daddy's Groove Remix)
  11. Henrik B & Rudy - Leave A Light On (Original Mix)
  12. Jean Elan feat. Vikki & The Violence - Mindset (Original Mix)
  13. Digitalism - Zdarlight (Fedde Le Grand & Deniz Koyu Remix)
  14. Avicii vs. Lenny Kravitz - Superlove (Original Mix)
  15. The Trixx - Meta (Hot Jay vs. Cash Remix)
Cue-Informationen:

PERFORMER "VA"
TITLE "D.J. Time Best Of 2012 (Mixed By D.J. Hot J)"
FILE "01-va-d.j._time_best_of_2012_(mixed_by_d.j._hot_j).mp3" MP3
  TRACK 01 AUDIO
    TITLE "Silenced By The Night (Alesso Remix)"
    PERFORMER "Alesso vs. Keane"
    INDEX 01 00:00:00
  TRACK 02 AUDIO
    TITLE "Every Day"
    PERFORMER "Eric Prydz"
    INDEX 01 06:42:06
  TRACK 03 AUDIO
    TITLE "Bombs Over Capitals (Original Mix)"
    PERFORMER "AN21 & Max Vangeli feat. Julie McKnight"
    INDEX 01 12:05:09
  TRACK 04 AUDIO
    TITLE "Follow You (Original Mix)"
    PERFORMER "Deniz Koyu feat. Wynter Gordon"
    INDEX 01 17:12:25
  TRACK 05 AUDIO
    TITLE "The Night Out (Maison & Dragen Remix)"
    PERFORMER "Martin Solveig"
    INDEX 01 22:31:07
  TRACK 06 AUDIO
    TITLE "We Are The Stars (Club Mix)"
    PERFORMER "Laidback Luke feat. Martel"
    INDEX 01 27:19:65
  TRACK 07 AUDIO
    TITLE "Finally Amarok (Marino Tomicic Private Bootleg) "
    PERFORMER "Denzal Park vs. Kings Of Tomorrow"
    INDEX 01 32:12:27
  TRACK 08 AUDIO
    TITLE "Greyhound (Original Mix)"
    PERFORMER "Swedish House Mafia"
    INDEX 01 36:42:18
  TRACK 09 AUDIO
    TITLE "In My Mind (Axwell Mix)"
    PERFORMER "Ivan Gough & Feenixpawl feat. Georgi Kay"
    INDEX 01 42:09:20
  TRACK 10 AUDIO
    TITLE "I Can Only Imagine (David Guetta & Daddys Groove Remix)"
    PERFORMER "David Guetta feat. Chris Brown & Lil Wayne"
    INDEX 01 47:34:64
  TRACK 11 AUDIO
    TITLE "Leave A Light On (Original Mix)"
    PERFORMER "Henrik B & Rudy"
    INDEX 01 52:27:02
  TRACK 12 AUDIO
    TITLE "Mindset (Original Mix)"
    PERFORMER "Jean Elan feat. Vikki & The Violence"
    INDEX 01 55:59:11
  TRACK 13 AUDIO
    TITLE "Zdarlight (Fedde Le Grand & Deniz Koyu Remix)"
    PERFORMER "Digitalism"
    INDEX 01 61:02:68
  TRACK 14 AUDIO
    TITLE "Superlove (Original Mix)"
    PERFORMER "Avicii vs. Lenny Kravitz"
    INDEX 01 66:17:61
  TRACK 15 AUDIO
    TITLE "Meta (Hot Jay vs. Cash Remix)"
    PERFORMER "The Trixx"
    INDEX 01 70:47:68
Wertung: ()   Hinzugefügt: 7 January 2022
Bewerte als Erster diesen Mix:
RSS Feed
RSS Feed
Sprache
Deutsch Englisch Französisch
Mixsuche
Suchbegriff
Genauer Wortlaut
Alle Worte (UND)
Ein Wort (ODER)
Statistik
14805 Mixe eingetragen
14492 Tracklisten
Newsletter
E-Mail
Anmelden
Abmelden
SPONSOREN