Mixkatalog
 Einloggen
Login
Passwort

D.J. Time Best Of 2013 Hits: 1  

D.J. Time Best Of 2013


Kurzbeschreibung:
DJ Hot J präsentiert den Mix DJ Time Best Of 2013.
 
Crew/DJ: DJ Hot J Reihe: DJ Time
Stil: House Erscheinungsjahr: 2013
Anzahl Tonträger: 1 Spielzeit: 76:03
Trackliste:
  1. Daft Punk feat. Pharrell Williams & Nile Rodgers - Get Lucky (Vijay & Sofia Zlatko Edit)
  2. Parov Stelar feat. Marvin Gaye - Keep On Dancing (Club Edit)
  3. Avicii - Wake Me Up (Original Extended Mix)
  4. Lana Del Rey vs. Cedric Gervais - Young & Beautiful (Remix)
  5. Calvin Harris & Alesso feat. Hurts - Under Control (Extended Mix)
  6. Onerepublic - If I Lose Myself (Alesso Remix - Extended Version)
  7. Keane - Sovereign Light Café (Afrojack Remix)
  8. Capital Cities - Safe & Sound (Tommie Sunshine & Live City Remix)
  9. Sebastian Ingrosso, Tommy Trash & John Martin - Reload (Vocal Extended Mix)
  10. Don Diablo & Matt Nash - Starlight (Could You Be Mine) (Extended Mix)
  11. Arty - Together We Are (Audien Remix)
  12. Daddy's Groove - Stellar (Extended)
  13. Martin Garrix - Animals
  14. Armin van Buuren feat. Trevor Guthrie - This Is What It Feels Like (W&W Remix)
  15. Afrojack feat. Spree Wilson - The Spark (Tiësto vs. Twoloud Remix)
  16. Axwell feat. Magnus Carlsson - Center Of The Universe (Original Extended Version)
Cue-Informationen:

PERFORMER "Va"
TITLE "D.J. Time Best Of 2013 (Mixed By D.J. Hot J)"
FILE "01-va-d.j._time_best_of_2013_(mixed_by_d.j._hot_j).mp3" MP3
  TRACK 01 AUDIO
    TITLE "Get Lucky (Vijay & Sofia Zlatko Edit)"
    PERFORMER "Daft Punk feat. Pharrell Williams & Nile Rodgers"
    INDEX 01 00:00:00
  TRACK 02 AUDIO
    TITLE "Keep On Dancing (Club Edit)"
    PERFORMER "Parov Stelar feat. Marvin Gaye"
    INDEX 01 06:39:57
  TRACK 03 AUDIO
    TITLE "Wake Me Up (Original Extended Mix)"
    PERFORMER "Avicii"
    INDEX 01 10:57:04
  TRACK 04 AUDIO
    TITLE "Young & Beautiful (Remix)"
    PERFORMER "Lana Del Rey vs. Cedric Gervais"
    INDEX 01 15:42:50
  TRACK 05 AUDIO
    TITLE "Under Control  (Extended Mix)"
    PERFORMER "Calvin Harris & Alesso feat. Hurts"
    INDEX 01 21:42:06
  TRACK 06 AUDIO
    TITLE "If I Lose Myself (Alesso Remix - Extended Version)"
    PERFORMER "Onerepublic"
    INDEX 01 26:00:20
  TRACK 07 AUDIO
    TITLE "Sovereign Light Café (Afrojack Remix)"
    PERFORMER "Keane"
    INDEX 01 31:19:60
  TRACK 08 AUDIO
    TITLE "Safe & Sound (Tommie Sunshine & Live City Remix)"
    PERFORMER "Capital Cities"
    INDEX 01 36:38:68
  TRACK 09 AUDIO
    TITLE "Reload (Vocal Extended Mix)"
    PERFORMER "Sebastian Ingrosso, Tommy Trash & John Martin"
    INDEX 01 41:27:38
  TRACK 10 AUDIO
    TITLE "Starlight (Could You Be Mine) (Extended Mix)"
    PERFORMER "Don Diablo & Matt Nash"
    INDEX 01 46:26:26
  TRACK 11 AUDIO
    TITLE "Together We Are (Audien Remix)"
    PERFORMER "Arty"
    INDEX 01 51:20:25
  TRACK 12 AUDIO
    TITLE "Stellar (Extended)"
    PERFORMER "Daddys Groove"
    INDEX 01 55:54:43
  TRACK 13 AUDIO
    TITLE "Animals"
    PERFORMER "Martin Garrix"
    INDEX 01 60:05:61
  TRACK 14 AUDIO
    TITLE "This Is What It Feels Like (W&W Remix)"
    PERFORMER "Armin van Buuren feat. Trevor Guthrie"
    INDEX 01 63:46:32
  TRACK 15 AUDIO
    TITLE "The Spark (Tiësto vs. Twoloud Remix)"
    PERFORMER "Afrojack feat. Spree Wilson"
    INDEX 01 68:42:22
  TRACK 16 AUDIO
    TITLE "Center Of The Universe (Original Extended Version)"
    PERFORMER "Axwell feat. Magnus Carlsson"
    INDEX 01 71:41:44
Wertung: ()   Hinzugefügt: 7 January 2022
Bewerte als Erster diesen Mix:
RSS Feed
RSS Feed
Sprache
Deutsch Englisch Französisch
Mixsuche
Suchbegriff
Genauer Wortlaut
Alle Worte (UND)
Ein Wort (ODER)
Statistik
14805 Mixe eingetragen
14492 Tracklisten
Newsletter
E-Mail
Anmelden
Abmelden
SPONSOREN