Mixkatalog
 Einloggen
Login
Passwort

D.J. Time Best Of 2014 Hits: 92  

D.J. Time Best Of 2014


Kurzbeschreibung:
DJ Hot J präsentiert den Mix DJ Time Best Of 2014.
 
Crew/DJ: DJ Hot J Reihe: DJ Time
Stil: House Erscheinungsjahr: 2014
Anzahl Tonträger: 1 Spielzeit: 78:04
Trackliste:
Cue-Informationen:

PERFORMER "Va"
TITLE "D.J. Time Best Of 2014 (Mixed By D.J. Hot J)"
FILE "01-va-d.j._time_best_of_2014_(mixed_by_d.j._hot_j).mp3" MP3
  TRACK 01 AUDIO
    TITLE "Prayer In C (Robin Shulz Remix)"
    PERFORMER "Lilly Wood & The Prick"
    INDEX 01 00:00:00
  TRACK 02 AUDIO
    TITLE "Mountain Top"
    PERFORMER "Kraak & Smaak"
    INDEX 01 05:30:45
  TRACK 03 AUDIO
    TITLE "Pushing On"
    PERFORMER "Oliver $ feat. Jimi Jules"
    INDEX 01 09:45:44
  TRACK 04 AUDIO
    TITLE "Love Too Deep"
    PERFORMER "Ferreck Dawn & Redondo"
    INDEX 01 15:10:32
  TRACK 05 AUDIO
    TITLE "I Got U"
    PERFORMER "Duke Dumont feat. Jax Jones"
    INDEX 01 19:49:61
  TRACK 06 AUDIO
    TITLE "Outlines"
    PERFORMER "Mike Mago & Dragonette"
    INDEX 01 24:24:44
  TRACK 07 AUDIO
    TITLE "Last All Night (Koala)"
    PERFORMER "Oliver Heldens feat. K Stewart"
    INDEX 01 28:47:57
  TRACK 08 AUDIO
    TITLE "A Sky Full Of Stars (Hardwell Remix)"
    PERFORMER "Coldplay"
    INDEX 01 32:03:36
  TRACK 09 AUDIO
    TITLE "Red Lights"
    PERFORMER "Tiësto"
    INDEX 01 34:53:03
  TRACK 10 AUDIO
    TITLE "Love Never Felt So Good (Fedde Le Grand Remix)"
    PERFORMER "Michael Jackson"
    INDEX 01 39:41:30
  TRACK 11 AUDIO
    TITLE "Summer"
    PERFORMER "Calvin Harris"
    INDEX 01 43:18:67
  TRACK 12 AUDIO
    TITLE "Nobody To Love (Third Party Remix)"
    PERFORMER "Sigma"
    INDEX 01 47:50:14
  TRACK 13 AUDIO
    TITLE "Feel The Preassure (Axwell & New Id Wtp Mix)"
    PERFORMER "Mutiny Uk & Steve Mac feat. Nate James"
    INDEX 01 52:04:42
  TRACK 14 AUDIO
    TITLE "Shot Me Down"
    PERFORMER "David Guetta feat. Skylar Grey"
    INDEX 01 57:09:29
  TRACK 15 AUDIO
    TITLE "Addicted To You (Sick Individuals Remix)"
    PERFORMER "Avicii"
    INDEX 01 61:09:37
  TRACK 16 AUDIO
    TITLE "Flashlight"
    PERFORMER "R3hab & Deorro"
    INDEX 01 63:55:62
  TRACK 17 AUDIO
    TITLE "Forever"
    PERFORMER "The Trixx feat. Nuthin Under The Million"
    INDEX 01 67:16:29
  TRACK 18 AUDIO
    TITLE "Sigure"
    PERFORMER "Matisse & Sadko"
    INDEX 01 71:00:11
  TRACK 19 AUDIO
    TITLE "Wasted Love"
    PERFORMER "Steve Angello feat. Dougy"
    INDEX 01 74:33:73
Wertung: ()  
Hinzugefügt: 7 January 2022
Bewerte als Erster diesen Mix:
RSS Feed
RSS Feed
Sprache
Deutsch Englisch Französisch
Mixsuche
Suchbegriff
Genauer Wortlaut
Alle Worte (UND)
Ein Wort (ODER)
Statistik
14581 Mixe eingetragen
14271 Tracklisten
Newsletter
E-Mail
Anmelden
Abmelden
SPONSOREN