Mixkatalog
 Einloggen
Login
Passwort

On The Beach 2018 Hits: 90  

On The Beach 2018


Kurzbeschreibung:
DJ Hot J präsentiert den Mix On The Beach 2018.
 
Crew/DJ: DJ Hot J Reihe: On The Beach
Stil: House Erscheinungsjahr: 2018
Anzahl Tonträger: 1 Spielzeit: 76:29
Trackliste:
Cue-Informationen:

PERFORMER "Va"
TITLE "On The Beach 2018 (Mixed By D.J. Hot J)"
FILE "01-va-on_the_beach_2018_(mixed_by_d.j._hot_j).mp3" MP3
  TRACK 01 AUDIO
    TITLE "Intro"
    PERFORMER "DJ Hot J"
    INDEX 01 00:00:00
  TRACK 02 AUDIO
    TITLE "Les Djinns (Geom Remix)"
    PERFORMER "Djuma Soundsystem"
    INDEX 01 01:16:07
  TRACK 03 AUDIO
    TITLE "The 6 Days (Original Mix)"
    PERFORMER "Mahmut Orhan & Colonel Bagshot"
    INDEX 01 05:21:60
  TRACK 04 AUDIO
    TITLE "Coming Back (Original Mix)"
    PERFORMER "Luca Debonaire & Xenia Ghali"
    INDEX 01 08:51:61
  TRACK 05 AUDIO
    TITLE "No Promises (Extended Mix)"
    PERFORMER "DJ George A"
    INDEX 01 12:57:52
  TRACK 06 AUDIO
    TITLE "Body (Extended Mix)"
    PERFORMER "Aeroplane feat. Yves Paquet"
    INDEX 01 16:49:74
  TRACK 07 AUDIO
    TITLE "Oh Child (Mushroom People Remix)"
    PERFORMER "Robin Schulz & Piso 21"
    INDEX 01 21:10:02
  TRACK 08 AUDIO
    TITLE "Solo (Ofenbach Remix)"
    PERFORMER "Clean Bandit feat. Demi Lovato"
    INDEX 01 24:16:69
  TRACK 09 AUDIO
    TITLE "Velha Infancia (Extended Mix)"
    PERFORMER "Tribalistas feat. Bruno Martini"
    INDEX 01 27:28:67
  TRACK 10 AUDIO
    TITLE "I Believe (Remix)"
    PERFORMER "Bob Sinclar"
    INDEX 01 30:44:16
  TRACK 11 AUDIO
    TITLE "Jenny From The Block 2018 (Extended Remix)"
    PERFORMER "Jennifer Lopez"
    INDEX 01 33:44:24
  TRACK 12 AUDIO
    TITLE "Ecuador 2018 (Remix)"
    PERFORMER "Sash"
    INDEX 01 36:48:74
  TRACK 13 AUDIO
    TITLE "Sunshine 2018 (Remix)"
    PERFORMER "Cat Dealers & LOthief feat. Santti"
    INDEX 01 40:39:48
  TRACK 14 AUDIO
    TITLE "So Long (Vincent & Diaz Remix)"
    PERFORMER "Malfa"
    INDEX 01 44:16:46
  TRACK 15 AUDIO
    TITLE "Drunk Groove (Kolya Funk & Mephisto Remix)"
    PERFORMER "Maruv & Boosin"
    INDEX 01 47:05:42
  TRACK 16 AUDIO
    TITLE "Flames (P!nk Panda Extended Mix)"
    PERFORMER "David Guetta feat. Sia"
    INDEX 01 50:25:19
  TRACK 17 AUDIO
    TITLE "One Kiss (Remix)"
    PERFORMER "Calvin Harris & Dua Lipa"
    INDEX 01 53:17:50
  TRACK 18 AUDIO
    TITLE "Inhale (Clean) (Extended)"
    PERFORMER "Duke Dumont feat. Ebenezer"
    INDEX 01 56:21:44
  TRACK 19 AUDIO
    TITLE "Feel My Love (Extended Mix)"
    PERFORMER "Jack Wins feat. Rae Hall"
    INDEX 01 59:28:46
  TRACK 20 AUDIO
    TITLE "No Tears Left To Cry (Eric Kupper's Mix Of Epic
Proportions)"
    PERFORMER "Ariana Grande"
    INDEX 01 62:44:43
  TRACK 21 AUDIO
    TITLE "I Could Be Wrong (Extended Mix)"
    PERFORMER "Lucas & Steve X Brandy"
    INDEX 01 65:50:29
  TRACK 22 AUDIO
    TITLE "Push The Feeling (Selekio In Da House Extended)"
    PERFORMER "Nightcrawlers X John Reid feat. Big Narstie"
    INDEX 01 69:11:54
  TRACK 23 AUDIO
    TITLE "Feel Galactic (Original Mix)"
    PERFORMER "Block & Crown"
    INDEX 01 72:31:31
Wertung: ()  
Hinzugefügt: 7 January 2022
Bewerte als Erster diesen Mix:
RSS Feed
RSS Feed
Sprache
Deutsch Englisch Französisch
Mixsuche
Suchbegriff
Genauer Wortlaut
Alle Worte (UND)
Ein Wort (ODER)
Statistik
14581 Mixe eingetragen
14271 Tracklisten
Newsletter
E-Mail
Anmelden
Abmelden
SPONSOREN