Mixkatalog
 Einloggen
Login
Passwort

D.J. Time Best Of 2015 Hits: 91  

D.J. Time Best Of 2015


Kurzbeschreibung:
DJ Hot J präsentiert den Mix DJ Time Best Of 2015.
 
Crew/DJ: DJ Hot J Reihe: DJ Time
Stil: House Erscheinungsjahr: 2015
Anzahl Tonträger: 1 Spielzeit: 71:57
Trackliste:
Cue-Informationen:

PERFORMER "Va"
TITLE "D.J. Time Best Of 2015 (Mixed By D.J. Hot J)"
FILE "01-va-d.j._time_best_of_2015_(mixed_by_d.j._hot_j)-2015.mp3"
MP3
  TRACK 01 AUDIO
    TITLE "Intro"
    PERFORMER "DJ Hot J"
    INDEX 01 00:00:00
  TRACK 02 AUDIO
    TITLE "How Deep Is Your Love (Extended Mix)"
    PERFORMER "Calvin Harris & Disciples"
    INDEX 01 00:58:58
  TRACK 03 AUDIO
    TITLE "Sugar (Extended Mix)"
    PERFORMER "Robin Schulz feat. Francesco Yates"
    INDEX 01 05:38:40
  TRACK 04 AUDIO
    TITLE "Ocean Drive (Michael Calfan Remix)"
    PERFORMER "Duke Dumont"
    INDEX 01 10:18:21
  TRACK 05 AUDIO
    TITLE "Goodbye (DJ Antonio Buddha Bar Extended Mix)"
    PERFORMER "Feder feat. Lyse"
    INDEX 01 13:23:51
  TRACK 06 AUDIO
    TITLE "Are You With Me (Freejak Remix)"
    PERFORMER "Lost Frequencies"
    INDEX 01 18:01:67
  TRACK 07 AUDIO
    TITLE "Easy Love (Extended Mix)"
    PERFORMER "Sigala"
    INDEX 01 22:25:27
  TRACK 08 AUDIO
    TITLE "Wish You Were Mine (Club Edit)"
    PERFORMER "Philip George"
    INDEX 01 26:48:06
  TRACK 09 AUDIO
    TITLE "The Party (This Is How We Do It) (Extended Mix)"
    PERFORMER "Joe Stone feat. Montell Jordan"
    INDEX 01 30:39:65
  TRACK 10 AUDIO
    TITLE "Finally (Original Mix)"
    PERFORMER "Mr. Belt & Wezol"
    INDEX 01 34:30:70
  TRACK 11 AUDIO
    TITLE "California (Chris Lake & Matroda Remix)"
    PERFORMER "SNBRN feat. Kaleena Zanders"
    INDEX 01 39:08:23
  TRACK 12 AUDIO
    TITLE "Secrets (Don Diablo's VIP Mix)"
    PERFORMER "Tiësto & KSHMR feat. Vassy"
    INDEX 01 43:24:71
  TRACK 13 AUDIO
    TITLE "Rage"
    PERFORMER "Sander van Doorn, Firebeatz & Julian Jordan"
    INDEX 01 47:13:56
  TRACK 14 AUDIO
    TITLE "Sun Goes Down (Extended Mix)"
    PERFORMER "David Guetta feat. MAGIC! & Sonny Wilson"
    INDEX 01 49:47:23
  TRACK 15 AUDIO
    TITLE "Lean On (Tiësto & MOTi Remix)"
    PERFORMER "Major Lazer feat. MO & DJ Snake"
    INDEX 01 52:54:59
  TRACK 16 AUDIO
    TITLE "On My Way (Extended Mix)"
    PERFORMER "Axwell, Ingrosso"
    INDEX 01 57:01:73
  TRACK 17 AUDIO
    TITLE "S.A.X. (Original Mix)"
    PERFORMER "Laidback Luke, Tujamo"
    INDEX 01 61:31:69
  TRACK 18 AUDIO
    TITLE "Objectif (Original Mix)"
    PERFORMER "Twoloud, Mojjjo, Mind'CD"
    INDEX 01 65:16:67
  TRACK 19 AUDIO
    TITLE "Jammu (Original Mix)"
    PERFORMER "KSHMR"
    INDEX 01 68:37:37
Wertung: ()  
Hinzugefügt: 7 January 2022
Bewerte als Erster diesen Mix:
RSS Feed
RSS Feed
Sprache
Deutsch Englisch Französisch
Mixsuche
Suchbegriff
Genauer Wortlaut
Alle Worte (UND)
Ein Wort (ODER)
Statistik
14581 Mixe eingetragen
14271 Tracklisten
Newsletter
E-Mail
Anmelden
Abmelden
SPONSOREN